NetHD.org

Helloween - United Alive 2019 1080p Blu-ray AVC LPCM

Download Helloween - United Alive 2019 1080p Blu-ray AVC LPCM  
Small Description
Basic Info
Uploaded byAnonymous at 2019-11-08 18:37:10
Action
Hot Meter
  • Views: 87
  • Hits: 15
  • Snatched: 3 x time(s)
  • Last Action: 2019-11-15 21:59:23
Peers2 Seeder | 0 Leecher



Helloween - United Alive 2019 1080p Blu-ray AVC LPCM  screenshots











Helloween - United Alive 2019 1080p Blu-ray AVC LPCM  screenshots


Disc 1 (Blu-ray) - United Alive
DISC INFO:

Disc Label:     HELLOWEEN UNITED ALIVE D1
Disc Size:      44,377,076,128 bytes
Protection:     AACS
BDInfo:         0.7.5.5

PLAYLIST REPORT:

Name:                   00001.MPLS
Length:                 2:41:44.541 (h:m:s.ms)
Size:                   42,790,852,608 bytes
Total Bitrate:          35.27 Mbps

VIDEO:

Codec                   Bitrate             Description    
-----                   -------             -----------    
MPEG-4 AVC Video        27257 kbps          1080p / 24 fps / 16:9 / High Profile 4.1

AUDIO:

Codec                           Language        Bitrate         Description    
-----                           --------        -------         -----------    
LPCM Audio                      English         1536 kbps       2.0 / 48 kHz /  1536 kbps / 16-bit
LPCM Audio                      English         4608 kbps       5.1 / 48 kHz /  4608 kbps / 16-bit

SUBTITLES:

Codec                           Language        Bitrate         Description    
-----                           --------        -------         -----------    
Presentation Graphics           Japanese        1.488 kbps                      

FILES:

Name            Time In         Length          Size            Total Bitrate  
----            -------         ------          ----            -------------  
00001.M2TS      0:00:00.000     2:41:44.541     42,790,852,608  35,275          



1. Halloween*
2. Dr. Stein*
3. I'm Alive**
4. If I Could Fly*
5. Are You Metal?***
6. Rise and Fall**
7. Waiting for the Thunder*
8. Perfect Gentleman*
9. Kai's Medley (Starlight / Ride the Sky / Judas / Heavy Metal Is the Law)***
10. Forever and One**
11. A Tale That Wasn't Right***
12. I Can*
13. Pumpkins United***
14. Drumkins United (instrumental)***
15. Living Ain't No Crime / A Little Time*
16. Why?**
17. Sole Survivor**
18. Power*
19. How Many Tears***
20. Invitation / Eagle Fly Free*
21. Keeper of the Seven Keys*
22. Mos-Kai-To (instrumental)
23. Future World*
24. I Want Out***
25. Outro & Credits
(*) Recorded live in Madrid, December 9th, 2017
(**) Recorded live in São Paulo, October 29th, 2017
(***) Recorded live at Wacken Open Air, August 4th, 2018






Disc 2 (Blu-ray)
DISC INFO:

Disc Label:     HELLOWEEN UNITED ALIVE D2
Disc Size:      22,493,739,564 bytes
Protection:     AACS
BDInfo:         0.7.5.5

PLAYLIST REPORT:

Name:                   00005.MPLS
Length:                 0:35:27.041 (h:m:s.ms)
Size:                   8,322,324,480 bytes
Total Bitrate:          31.30 Mbps

VIDEO:

Codec                   Bitrate             Description    
-----                   -------             -----------    
MPEG-4 AVC Video        27994 kbps          1080p / 24 fps / 16:9 / High Profile 4.1

AUDIO:

Codec                           Language                  Bitrate         Description    
-----                           --------                  -------         -----------    
LPCM Audio                      Multiple languages        1536 kbps       2.0 / 48 kHz /  1536 kbps / 16-bit

SUBTITLES:

Codec                           Language                  Bitrate         Description    
-----                           --------                  -------         -----------    
Presentation Graphics           English                   16.625 kbps                    
Presentation Graphics           German                    15.118 kbps                    
Presentation Graphics           Spanish                   31.958 kbps                    
Presentation Graphics           Portuguese                32.660 kbps                    
Presentation Graphics           Japanese                  59.609 kbps                    

FILES:

Name            Time In         Length          Size            Total Bitrate  
----            -------         ------          ----            -------------  
00005.M2TS      0:00:00.000     0:35:26.625     8,322,201,600   31,307          
00025.M2TS      0:35:26.625     0:00:00.416     122,880         2,359          



1. Halloween 13:35
2. Dr. Stein 05:29
3. Kids of the Century 04:08
4. March of Time 05:27
5. Pumpkin’s Whisper 35:27
6. Bursting Hamburg 01:59
7. The Essential LED Compilation 17:09
8. Seth & Doc, The United Thing 12:04
9. The Keeper’s Journey 01:19











Helloween - United Alive 2019 1080p Blu-ray AVC LPCM  screenshots


Helloween - United Alive 2019 1080p Blu-ray AVC LPCM  screenshotsHelloween - United Alive 2019 1080p Blu-ray AVC LPCM  screenshotsHelloween - United Alive 2019 1080p Blu-ray AVC LPCM  screenshots
Helloween - United Alive 2019 1080p Blu-ray AVC LPCM  screenshotsHelloween - United Alive 2019 1080p Blu-ray AVC LPCM  screenshotsHelloween - United Alive 2019 1080p Blu-ray AVC LPCM  screenshots
Helloween - United Alive 2019 1080p Blu-ray AVC LPCM  screenshotsHelloween - United Alive 2019 1080p Blu-ray AVC LPCM  screenshotsHelloween - United Alive 2019 1080p Blu-ray AVC LPCM  screenshots
Helloween - United Alive 2019 1080p Blu-ray AVC LPCM  screenshotsHelloween - United Alive 2019 1080p Blu-ray AVC LPCM  screenshotsHelloween - United Alive 2019 1080p Blu-ray AVC LPCM  screenshots







Helloween - United Alive 2019 1080p Blu-ray AVC LPCM  screenshots
Helloween - United Alive 2019 1080p Blu-ray AVC LPCM  screenshots



Powerwolf - Metallum Nostrum (2019) [FLAC]Metallica - Greatest Hits 2x2CD (2008) [FLAC] (image+cue)Various Artist - Monsters of Metal - The Ultimate Metal Compilation Vol 10 2016 BLURAY 720p AVC LPCMOomph! - Ritual (2019) [FLAC]Valtari - Origin Enigma (2019) [FLAC]Sabaton - The Great War (2019) [MP3]

Only members can create comment.