NetHD.org

Hiệp Khách Hành 2017 ViE 1080P WEB-DL 264

Download Hiệp Khách Hành 2017 ViE 1080P WEB-DL 264 
Small DescriptionVõ hiệp Kim Dung
Basic Info
Uploaded byphivan (Crazy User) at 2019-01-09 16:13:32
Action
Hot Meter
  • Views: 1716
  • Hits: 419
  • Snatched: 156 x time(s)
  • Last Action: 2019-08-19 22:22:01
Peers3 Seeder | 0 Leecher



Tân Hiệp Khách Hành 2017

Nguyên Tác: Kim Dung
Đạo Diễn : Trương Kỷ Trung



Hiệp Khách Hành 2017 ViE 1080P WEB-DL 264 screenshots

Hiệp Khách Hành 2017 ViE 1080P WEB-DL 264 screenshots

Thái Nghi Đạt đóng 2 vai Thạch Phá Thiên và Thạch Trung Ngọc.

Hiệp Khách Hành 2017 ViE 1080P WEB-DL 264 screenshots

Trương Gia Nghê thể hiện vai Đinh Đang.

Hiệp Khách Hành 2017 ViE 1080P WEB-DL 264 screenshots

Lý Tịnh Dương vào vai A Tú.


Nội Dung

Quote

Nguyên tác : Kim Dung Thời lượng : 32 tập Sản Xuất: Tập đoàn Hoa Nghị Huynh Đệ Tổng chế tác : Trương Kỷ Trung Đạo diễn : Chung Thiếu Hùng, Triệu Tiễn Chỉ đạo võ thuật : Triệu Tiễn Thời gian khai máy : đầu tháng 5/2014 Ngoại cảnh : Cam Túc Trị Lực quan, Thiểm Tây Thái Bạch sơn, Võ Đang Thái Cực hồ, Tượng Sơn

Diễn Viên: Thái Nghi Đạt .... Thạch Phá Thiên/Thạch Trung Ngọc; Trương Gia Nghê .... Đinh Đang; Lý Tịnh Dương .... A Tú; Từ Thiếu Cường .... Tạ Yên Khách; Lý Tử Hùng .... Bối Hải Thạch; Lưu Tích Minh .... Thạch Thanh Hà Giai Di .... Mẫn Nhu.
Sau 5 năm tạm chia tay đề tài võ hiệp, Trương Kỷ Trung đã trở lại với tác phẩm Hiệp Khách Hành. Ông tuyên bố kế hoạch sẽ chuyển thể hết những tác phẩm còn lại của Kim Dung còn dang dở như Thư Kiếm Ân Cừu Lục, Tuyết Sơn Phi Hồ và Phi Hồ Ngoại Truyện. Trương Kỷ Trung đã gặp mặt Kim Dung để thảo luận về kịch bản. Kịch bản phim đã phải chỉnh sửa đến 3 lần và cuối cùng cả 2 bên Kim Dung và Trương Kỷ Trung đã cùng thống nhất là phim sẽ kéo dài 32 tập. So với nguyên tác, tính cách nhân vật trong phim sẽ càng đầy đủ hơn, tình tiết sẽ càng phong phú hơn. Trương Kỷ Trung cho biết dàn diễn viên chính chủ yếu sẽ sử dụng tân nhân. Việc Trương Kỷ Trung trở lại bộ phim Hiệp khách hành, ngoài việc yêu thích, còn một lý do quan trọng là ông muốn "lấy lại uy tín" cho dòng phim võ hiệp Kim Dung trên màn ảnh nhỏ Trung Quốc sau những tác phẩm được xem là "thảm họa" như Tiếu Ngạo Giang Hò 2012, Thần điêu đại hiệp 2014 của Vu Chính hay Thiên long bát bộ 2013 của Lại Thủy Thanh Không muốn phụ thuộc vào những đối tác đầu tư, Trương Kỷ Trung quyết định tự bỏ tiền túi 60 triệu nhân dân tệ (khoảng 9,8 triệu USD) thực hiện bộ phim này. Trong buổi công bố dự án Hiệp khách hành 2015, ông thú nhận: "Do muốn dành nhiều kinh phí cho những đại cảnh nên tôi không dám mời những ngôi sao như những tác phẩm trước. Tuy nhiên, tôi tin tưởng vào sự lựa chọn của mình, các diễn viên tham gia trong Hiệp khách hành đều có thực tài.


Media Info


Quote
Complete name               :\Hiep Khach Hanh 01.mkv
Format                      : Matroska
Format version              : Version 4 / Version 2
File size                   : 1.18 GiB
Duration                    : 45 min 25 s
Overall bit rate            : 3 730 kb/s
Encoded date                : UTC 2018-04-18 12:49:21
Writing application         : mkvmerge v22.0.0 ('At The End Of The World') 64-bit
Writing library             : libebml v1.3.5 + libmatroska v1.4.8

Video
ID                          : 1
Format                      : AVC
Format/Info                 : Advanced Video Codec
Format profile              : High@L4
Format settings             : CABAC / 4 Ref Frames
Format settings, CABAC      : Yes
Format settings, ReFrames   : 4 frames
Codec ID                    : V_MPEG4/ISO/AVC
Duration                    : 45 min 24 s
Bit rate                    : 3 280 kb/s
Width                       : 1 920 pixels
Height                      : 1 080 pixels
Display aspect ratio        : 16:9
Frame rate mode             : Constant
Frame rate                  : 25.000 FPS
Color space                 : YUV
Chroma subsampling          : 4:2:0
Bit depth                   : 8 bits
Scan type                   : Progressive
Bits/(Pixel*Frame)          : 0.063
Stream size                 : 1.04 GiB (88%)
Default                     : Yes
Forced                      : No

Audio #1
ID                          : 2
Format                      : MPEG Audio
Format version              : Version 1
Format profile              : Layer 3
Format settings             : Joint stereo
Codec ID                    : A_MPEG/L3
Codec ID/Hint               : MP3
Duration                    : 45 min 25 s
Bit rate mode               : Constant
Bit rate                    : 320 kb/s
Channel(s)                  : 2 channels
Sampling rate               : 48.0 kHz
Frame rate                  : 41.667 FPS (1152 SPF)
Compression mode            : Lossy
Delay relative to video     : -46 ms
Stream size                 : 104 MiB (9%)
Title                       : Lồng Tiếng
Language                    : Vietnamese
Default                     : Yes
Forced                      : Yes

Audio #2
ID                          : 3
Format                      : AAC
Format/Info                 : Advanced Audio Codec
Format profile              : LC
Codec ID                    : A_AAC-2
Duration                    : 45 min 25 s
Bit rate                    : 128 kb/s
Channel(s)                  : 2 channels
Channel positions           : Front: L R
Sampling rate               : 44.1 kHz
Frame rate                  : 43.066 FPS (1024 SPF)
Compression mode            : Lossy
Delay relative to video     : -46 ms
Stream size                 : 41.6 MiB (3%)
Default                     : No
Forced                      : No





Screenshots



Hiệp Khách Hành 2017 ViE 1080P WEB-DL 264 screenshots Hiệp Khách Hành 2017 ViE 1080P WEB-DL 264 screenshots Hiệp Khách Hành 2017 ViE 1080P WEB-DL 264 screenshots Hiệp Khách Hành 2017 ViE 1080P WEB-DL 264 screenshots Hiệp Khách Hành 2017 ViE 1080P WEB-DL 264 screenshots Hiệp Khách Hành 2017 ViE 1080P WEB-DL 264 screenshots


The Predator 2018 2160p UHD Blu-ray HEVC TrueHD7.1-HDBEE The Patriot 2000 m720p HDTV AAC2.0 H.264-NTVPhim Tài Liệu - Nhà báo Võ Nguyên Giáp 720p HDTV AAC2.0 H.264-NTVSalt 2010 mHD BluRay DD5.1 x264-TRiM Jack the Giant Slayer 2013 720p BluRay DTS x264-DONHarry Potter and the Philosopher's Stone 2001 2in1 720p BluRay DTS x264-EbP

Only members can create comment.