High School Girl's Fake Diary 1981 1080p BluRay DD2.0 x264

Download High School Girl's Fake Diary 1981 1080p BluRay DD2.0 x264 
Small DescriptionCân Nhắc Trước Khi Xem
Basic Info
Uploaded byAnonymous at 2018-11-04 09:07:04
Action
Social
  • 20
Hot Meter
  • Views: 2522
  • Hits: 362
  • Snatched: 294 x time(s)
  • Last Action: 2019-01-18 01:54:41
Peers12 Seeder | 0 Leecher
High School Girl's Fake Diary 1981 1080p BluRay DD2.0 x264 screenshots




Quote
General
Unique ID : 131759769375327421292488308249920810961 (0x6320022F0EE0FE31998B9656EB9C2FD1)
Complete name : High.School.Girls.Fake.Diary.1981.1080p.BluRay.AC3.x264.mkv
Format : Matroska
Format version : Version 4 / Version 2
File size : 4.49 GiB
Duration : 1 h 4 min
Overall bit rate : 9 999 kb/s
Encoded date : UTC 2018-11-02T14:52:21Z
Writing application : HandBrake 1.1.1 2018061800
Writing library : Lavf57.7.2

Video
ID : 1
Format : AVC
Format/Info : Advanced Video Codec
Format profile : High@L4.1
Format settings : CABAC / 4 Ref Frames
Format settings, CABAC : Yes
Format settings, RefFrames : 4 frames
Codec ID : V_MPEG4/ISO/AVC
Duration : 1 h 4 min
Bit rate : 9 500 kb/s
Width : 1 920 pixels
Height : 1 080 pixels
Display aspect ratio : 16:9
Frame rate mode : Constant
Frame rate : 23.976 (24000/1001) FPS
Color space : YUV
Chroma subsampling : 4:2:0
Bit depth : 8 bits
Scan type : Progressive
Bits/(Pixel*Frame) : 0.191
Stream size : 4.20 GiB (94%)
Writing library : x264 core 155 r2901 7d0ff22
Encoding settings : cabac=1 / ref=4 / deblock=1:0:0 / analyse=0x3:0x133 / me=umh / subme=10 / psy=1 / psy_rd=1.00:0.00 / mixed_ref=1 / me_range=24 / chroma_me=1 / trellis=2 / 8x8dct=1 / cqm=0 / deadzone=21,11 / fast_pskip=1 / chroma_qp_offset=-2 / threads=12 / lookahead_threads=2 / sliced_threads=0 / nr=0 / decimate=1 / interlaced=0 / bluray_compat=0 / constrained_intra=0 / bframes=8 / b_pyramid=2 / b_adapt=2 / b_bias=0 / direct=3 / weightb=1 / open_gop=0 / weightp=2 / keyint=240 / keyint_min=24 / scenecut=40 / intra_refresh=0 / rc_lookahead=60 / rc=2pass / mbtree=1 / bitrate=9500 / ratetol=1.0 / qcomp=0.60 / qpmin=0 / qpmax=69 / qpstep=4 / cplxblur=20.0 / qblur=0.5 / vbv_maxrate=62500 / vbv_bufsize=78125 / nal_hrd=none / filler=0 / ip_ratio=1.40 / aq=1:1.00
Default : Yes
Forced : No
Color range : Limited
Color primaries : BT.709
Transfer characteristics : BT.709
Matrix coefficients : BT.709

Audio
ID : 2
Format : AC-3
Format/Info : Audio Coding 3
Codec ID : A_AC3
Duration : 1 h 4 min
Bit rate mode : Constant
Bit rate : 448 kb/s
Channel(s) : 2 channels
Channel positions : Front: L R
Sampling rate : 48.0 kHz
Frame rate : 31.250 FPS (1536 SPF)
Bit depth : 16 bits
Compression mode : Lossy
Stream size : 206 MiB (4%)
Title : Stereo
Language : Japanese
Service kind : Complete Main
Default : Yes
Forced : No

Text #1
ID : 3
Format : PGS
Codec ID : S_HDMV/PGS
Codec ID/Info : Picture based subtitle format used on BDs/HD-DVDs
Language : Japanese
Default : No
Forced : No

Text #2
ID : 4
Format : PGS
Codec ID : S_HDMV/PGS
Codec ID/Info : Picture based subtitle format used on BDs/HD-DVDs
Language : English
Default : Yes
Forced : Yes




High School Girl's Fake Diary 1981 1080p BluRay DD2.0 x264 screenshots High School Girl's Fake Diary 1981 1080p BluRay DD2.0 x264 screenshots High School Girl's Fake Diary 1981 1080p BluRay DD2.0 x264 screenshots

High School Girl's Fake Diary 1981 1080p BluRay DD2.0 x264 screenshots High School Girl's Fake Diary 1981 1080p BluRay DD2.0 x264 screenshots High School Girl's Fake Diary 1981 1080p BluRay DD2.0 x264 screenshots

TitleJokosei nise nikki
Year1981
GenreRomance
Rating4.8 (12 votes)
Plotn/A
DirectorNobuyoshi Araki
CastsRika Arai,Yoko Morimura,Naomi Hagio,Nobuyuki Aoshima,Nobuyoshi Araki…
Runtime64 min
GenresRomance
Jokosei nise nikki


Tags

Other releases

Same genre with High School Girl's Fake Diary 1981 1080p BluRay DD2.0 x264

Only You (Always) 2011 720p AAC x264 - KSTRun the Tide 2016 1080p WEB-DL DD5.1 H264-FGTToast 2010 720p BluRay DD5.1 x264-CRiSC  Remainder 2015 1080p BluRay DD5.1 x264-SA89Twice Upon a Yesterday 1998 720p WEB-DL AAC2.0 H.264-alfaHDBefore Sunrise, Befor Sunset Pack EPiK

Comment for High School Girl's Fake Diary 1981 1080p BluRay DD2.0 x264

Only members can create comment.