High Society 2015 1080p HDTV DD2.0 x264 -DOA

Download High Society 2015 1080p HDTV DD2.0 x264 -DOA Free
Small Description1080p @ CRF 18 - HDTV - Korean Drama 2015 - 16 Episodes
Basic Info
Uploaded byAnonymous at 2015-08-09 06:14:40
Action
Social
  • 5
Hot Meter
  • Views: 1082
  • Hits: 97
  • Snatched: 2 x time(s)
  • Last Action: 2018-07-27 00:38:23
Peers0 Seeder | 0 Leecher
THIS IS MY FIRST UPLOAD HERE, PLEASE LEAVE YOUR FEEDBACK IN THE COMMENTS :D


[剧 名]:상류사회 / 上流社會
[播 送]:韓國SBS台
[类 型]:SBS月火劇
[首 播]:2015年6月8日
[时 间]:每周一、周二晚韓國時間10點各播放一集
[导 演]:崔永勳
[编 剧]:河明熙
[主 演]:UEE, 盛駿, 朴炯植, 林智妍
[接 档]:聽到傳聞
[集 数]:16集
[官 网]:http://tv.sbs.co.kr/2015royal/

《上流社會》(朝鮮語:상류사회)為韓國SBS於2015年6月8日起播出的月火連續劇,《溫暖的一句話》崔永勳導演和河明熙作家再次攜手打造的作品。描述的是一位隱藏自己的身分的女人尋找一位即使自己不是財閥女兒、也願意愛自己的男人,以及一位認為愛情是領導階層為了支配他人而使用的情緒性手段的男人的故事。

Drama: High Society (literal title)
Revised romanization: Sangryusawhe
Hangul: 상류사회
Director: Choi Hyeong-Hun
Writer: Ha Myung-Hee
Network: SBS
Episodes: 16
Release Date: June 8 - July 28, 2015
Runtime: Monday & Tuesday 21:55
Language: Korean
Country: South Korea


Quote
General
Unique ID                                : 183195291164156408571271161878786230000 (0x89D22133850D280B824058836CBA46F0)
Complete name                            : High.Society.E05.1080p.HDTV.x264.AC3-DoA.mkv
Format                                   : Matroska
Format version                           : Version 4 / Version 2
File size                                : 3.84 GiB
Duration                                 : 59mn 21s
Overall bit rate                         : 9 265 Kbps
Movie name                               : 상류사회. Encoded by Elanor
Encoded date                             : UTC 2015-08-07 15:41:59
Writing application                      : mkvmerge v8.2.0 ('World of Adventure') 64bit
Writing library                          : libebml v1.3.1 + libmatroska v1.4.2
DURATION                                 : 00:59:21.090000000
NUMBER_OF_FRAMES                         : 106726
NUMBER_OF_BYTES                          : 3952455437
_STATISTICS_WRITING_APP                  : mkvmerge v8.2.0 ('World of Adventure') 64bit
_STATISTICS_WRITING_DATE_UTC             : 2015-08-07 15:41:59
_STATISTICS_TAGS                         : BPS DURATION NUMBER_OF_FRAMES NUMBER_OF_BYTES

Video
ID                                       : 1
Format                                   : AVC
Format/Info                              : Advanced Video Codec
Format profile                           : High@L4.1
Format settings, CABAC                   : Yes
Format settings, ReFrames                : 4 frames
Codec ID                                 : V_MPEG4/ISO/AVC
Duration                                 : 59mn 21s
Bit rate                                 : 8 697 Kbps
Width                                    : 1 912 pixels
Height                                   : 1 080 pixels
Display aspect ratio                     : 16:9
Frame rate mode                          : Constant
Frame rate                               : 29.970 fps
Color space                              : YUV
Chroma subsampling                       : 4:2:0
Bit depth                                : 8 bits
Scan type                                : Progressive
Bits/(Pixel*Frame)                       : 0.141
Stream size                              : 3.61 GiB (94%)
Writing library                          : x264 core 144 r2525 40bb568
Encoding settings                        : cabac=1 / ref=4 / deblock=1:-2:-2 / analyse=0x3:0x133 / me=umh / subme=10 / psy=1 / psy_rd=1.00:0.15 / mixed_ref=1 / me_range=24 / chroma_me=1 / trellis=2 / 8x8dct=1 / cqm=0 / deadzone=21,11 / fast_pskip=1 / chroma_qp_offset=-5 / threads=12 / lookahead_threads=2 / sliced_threads=0 / nr=0 / decimate=1 / interlaced=0 / bluray_compat=0 / constrained_intra=0 / bframes=8 / b_pyramid=2 / b_adapt=2 / b_bias=0 / direct=3 / weightb=1 / open_gop=0 / weightp=2 / keyint=288 / keyint_min=27 / scenecut=40 / intra_refresh=0 / rc_lookahead=60 / rc=crf / mbtree=1 / crf=18.0 / qcomp=0.60 / qpmin=0 / qpmax=69 / qpstep=4 / ip_ratio=1.40 / aq=1:1.00
Default                                  : Yes
Forced                                   : No

Audio
ID                                       : 2
Format                                   : AC-3
Format/Info                              : Audio Coding 3
Mode extension                           : CM (complete main)
Format settings, Endianness              : Big
Codec ID                                 : A_AC3
Duration                                 : 59mn 21s
Bit rate mode                            : Constant
Bit rate                                 : 384 Kbps
Channel(s)                               : 2 channels
Channel positions                        : Front: L R
Sampling rate                            : 48.0 KHz
Bit depth                                : 16 bits
Compression mode                         : Lossy
Delay relative to video                  : 26ms
Stream size                              : 163 MiB (4%)
Title                                    : 26
Default                                  : Yes

Forced                                   : No




Plot
Jang Yoon-ha is the youngest daughter of a chaebol family. Despite her wealth, she works part-time at a food market and hides her true identity as an heiress because all she wants is to find a man who‘ll love her for herself and not her money.

Choi Joon-ki grew up in extreme poverty, and has a huge chip on his shoulder about his poor parents being belittled. Now working as a middle manager for a conglomerate, Joon-ki is smart and talented but also jaded and calculating, believing that love is a luxury only for the wealthy.

Cast

Uee as Jang Yoon-ha
Sung Joon as Choi Joon-ki
Lim Ji-yeon as Lee Ji-yi
Park Hyung-sik as Yoo Chang-soo
Yoon Ji-hye as Jang Ye-won
Go Doo-shim as Min Hye-soo
Yoon Joo-sang as Jang Won-sik

High Society 2015 1080p HDTV DD2.0 x264 -DOA screenshots
High Society 2015 1080p HDTV DD2.0 x264 -DOA screenshots




Tags

Other releases

Same genre with High Society 2015 1080p HDTV DD2.0 x264 -DOA

Outlander S02E12 720p HDTV x264-FLEETLegion S01 1080p BluRay DTS x264-NTb[TVB VNLT] Romantic Repertoire HDTV 720p VNLT TVB Ep10-Ep17Chuyên Gia Hòa Giải 2015 (20 EPS) USLTA Smile as Big as the Moon 2012 ViE SDTV AAC2.0 H.264-FrumosEntourage S04 720p Bluray DD5.1 x264-DON

Comment for High Society 2015 1080p HDTV DD2.0 x264 -DOA

Only members can create comment.