NetHD.org

Hotel Del Luna S01 720p HDTV AAC H264-NEXT

Download Hotel Del Luna S01 720p HDTV AAC H264-NEXT 
Small DescriptionKhách sạn ma quái 2019 - 16 tập
Basic Info
Uploaded byAnonymous at 2019-10-09 20:17:41
Action
Hot Meter
  • Views: 147
  • Hits: 14
  • Snatched: 10 x time(s)
  • Last Action: 2019-10-23 15:38:39
Peers5 Seeder | 0 Leecher

  • 0


Hotel Del Luna S01 720p HDTV AAC H264-NEXT screenshots



Quote
General
Complete name : Hotel.Del.Luna.E16.190901.720p-NEXT.mp4
Format : MPEG-4
Format profile : Base Media
Codec ID : isom (isom/iso2/avc1/mp41)
File size : 1.99 GiB
Duration : 1 h 33 min
Overall bit rate : 3 037 kb/s
Writing application : MH ENCODER

Video
ID : 1
Format : AVC
Format/Info : Advanced Video Codec
Format profile : High@L3.2
Format settings : CABAC / 3 Ref Frames
Format settings, CABAC : Yes
Format settings, RefFrames : 3 frames
Codec ID : avc1
Codec ID/Info : Advanced Video Coding
Duration : 1 h 33 min
Bit rate : 2 840 kb/s
Width : 1 280 pixels
Height : 720 pixels
Display aspect ratio : 16:9
Frame rate mode : Variable
Frame rate : 29.970 (30000/1001) FPS
Minimum frame rate : 14.985 FPS
Maximum frame rate : 90 000.000 FPS
Color space : YUV
Chroma subsampling : 4:2:0
Bit depth : 8 bits
Scan type : Progressive
Bits/(Pixel*Frame) : 0.103
Stream size : 1.86 GiB (93%)

Audio
ID : 2
Format : AAC
Format/Info : Advanced Audio Codec
Format profile : LC
Codec ID : mp4a-40-2
Duration : 1 h 33 min
Bit rate mode : Constant
Bit rate : 192 kb/s
Channel(s) : 2 channels
Channel positions : Front: L R
Sampling rate : 48.0 kHz
Frame rate : 46.875 FPS (1024 SPF)
Compression mode : Lossy
Stream size : 127 MiB (6%)
Default : Yes
Alternate group : 1



Hotel Del Luna S01 720p HDTV AAC H264-NEXT screenshots Hotel Del Luna S01 720p HDTV AAC H264-NEXT screenshots Hotel Del Luna S01 720p HDTV AAC H264-NEXT screenshots Hotel Del Luna S01 720p HDTV AAC H264-NEXT screenshots Hotel Del Luna S01 720p HDTV AAC H264-NEXT screenshots Hotel Del Luna S01 720p HDTV AAC H264-NEXT screenshots
TitleLa stagione dei delitti
Year2007
GenreCrime
Ratingn/A (n/A votes)
Plotn/A
DirectorDaniele Costantini
CastsBarbara De Rossi,Cristina Moglia,Massimo Popolizio,Daniele Savoca,Antonio Pennarella…
Runtimen/A
La stagione dei delitti


American Mary 2012.1080p BluRay DTS x264-FANDANGOAva's Possessions 2015 720p WEB-DL DD5.1 H.264-FGTPandorum 2009 Extras 720p BluRay DD2 0 x264-DONInfected 2013 1080p BluRay X264-iFTCronos 1993 720p BluRay x264-DONA l'interieur 2007 1080p BluRay DTS x264-CtrlHD

Only members can create comment.