NetHD.org

Hotel Mumbai 2018 1080p Blu-ray Remux AVC DTS-HD MA 5.1-HDU

Download Hotel Mumbai 2018 1080p Blu-ray Remux AVC DTS-HD MA 5.1-HDU 
Small DescriptionPhim Khách Sạn Mumbai - Thảm Sát Kinh Hoàng
Basic Info
Uploaded byAnonymous at 2019-06-12 16:25:07
Action
Social
  • 1
Hot Meter
  • Views: 125
  • Hits: 11
  • Snatched: 3 x time(s)
  • Last Action: 2019-06-15 22:57:08
Peers2 Seeder | 0 Leecher


Hotel Mumbai 2018 1080p Blu-ray Remux AVC DTS-HD MA 5.1-HDU screenshots



Quote

General
Unique ID                      : 112719051368147225077505861563268838743 (0x54CCE64E5DEC36BE0EC58F1D16DDB557)
Complete name                  : Hotel.Mumbai.2018.1080p.Blu-ray.Remux.AVC.DTS-HD.MA.5.1-HDU.mkv
Format                         : Matroska
Format version                 : Version 4 / Version 2
File size                      : 33.7 GiB
Duration                       : 2 h 2 min
Overall bit rate mode          : Variable
Overall bit rate               : 39.2 Mb/s
Movie name                     : Hotel.Mumbai.2018.1080p.Blu-ray.Remux.AVC.DTS-HD.MA.5.1-HDU
Encoded date                   : UTC 2019-06-11 22:12:06
Writing application            : mkvmerge v30.1.0 ('Forever And More') 32-bit
Writing library                : libebml v1.3.6 + libmatroska v1.4.9

Video
ID                             : 1
Format                         : AVC
Format/Info                    : Advanced Video Codec
Format profile                 : High@L4.1
Format settings, CABAC         : Yes
Format settings, RefFrames     : 4 frames
Codec ID                       : V_MPEG4/ISO/AVC
Duration                       : 2 h 2 min
Bit rate mode                  : Variable
Bit rate                       : 35.1 Mb/s
Maximum bit rate               : 38.0 Mb/s
Width                          : 1 920 pixels
Height                         : 1 080 pixels
Display aspect ratio           : 16:9
Frame rate mode                : Constant
Frame rate                     : 23.976 (24000/1001) FPS
Color space                    : YUV
Chroma subsampling             : 4:2:0
Bit depth                      : 8 bits
Scan type                      : Progressive
Bits/(Pixel*Frame)             : 0.706
Stream size                    : 30.1 GiB (89%)
Default                        : Yes
Forced                         : No

Audio
ID                             : 2
Format                         : DTS
Format/Info                    : Digital Theater Systems
Format profile                 : MA / Core
Mode                           : 16
Format settings, Endianness    : Big
Codec ID                       : A_DTS
Duration                       : 2 h 2 min
Bit rate mode                  : Variable / Constant
Bit rate                       : 4 141 kb/s / 1 509 kb/s
Channel(s)                     : 6 channels
Channel positions              : Front: L C R, Side: L R, LFE
Sampling rate                  : 48.0 kHz
Frame rate                     : 93.750 FPS (512 SPF)
Bit depth                      : 24 bits
Compression mode               : Lossless / Lossy
Stream size                    : 3.55 GiB (11%)
Title                          : DTS-HD Master Audio / 5.1 / 48 kHz / 4141 kbps / 24-bit
Language                       : English
Default                        : Yes
Forced                         : No

Text #1
ID                             : 3
Format                         : PGS
Muxing mode                    : zlib
Codec ID                       : S_HDMV/PGS
Codec ID/Info                  : Picture based subtitle format used on BDs/HD-DVDs
Duration                       : 1 h 55 min
Bit rate                       : 31.0 kb/s
Count of elements              : 2248
Stream size                    : 25.5 MiB (0%)
Title                          : SDH
Language                       : English
Default                        : No
Forced                         : No

Text #2
ID                             : 4
Format                         : ASS
Codec ID                       : S_TEXT/ASS
Codec ID/Info                  : Advanced Sub Station Alpha
Duration                       : 1 h 53 min
Bit rate                       : 240 b/s
Count of elements              : 1497
Compression mode               : Lossless
Stream size                    : 201 KiB (0%)
Title                          : cht&eng
Language                       : Chinese
Default                        : No
Forced                         : No

Text #3
ID                             : 5
Format                         : ASS
Codec ID                       : S_TEXT/ASS
Codec ID/Info                  : Advanced Sub Station Alpha
Duration                       : 1 h 53 min
Bit rate                       : 240 b/s
Count of elements              : 1497
Compression mode               : Lossless
Stream size                    : 201 KiB (0%)
Title                          : chs&eng
Language                       : Chinese
Default                        : No
Forced                         : No

Text #4
ID                             : 6
Format                         : ASS
Codec ID                       : S_TEXT/ASS
Codec ID/Info                  : Advanced Sub Station Alpha
Duration                       : 1 h 53 min
Bit rate                       : 115 b/s
Count of elements              : 1497
Compression mode               : Lossless
Stream size                    : 96.6 KiB (0%)
Title                          : cht
Language                       : Chinese
Default                        : No
Forced                         : No

Text #5
ID                             : 7
Format                         : ASS
Codec ID                       : S_TEXT/ASS
Codec ID/Info                  : Advanced Sub Station Alpha
Duration                       : 1 h 53 min
Bit rate                       : 115 b/s
Count of elements              : 1497
Compression mode               : Lossless
Stream size                    : 96.6 KiB (0%)
Title                          : chs
Language                       : Chinese
Default                        : Yes
Forced                         : No


TitleKhách San Mumbai: Tham Sát Kinh Hoàng
Year2018
Genre
Rating7.7 (11,415 votes)
PlotA gripping true story of humanity and heroism, HOTEL MUMBAI vividly recounts the 2008 siege of the famed Taj Hotel by a group of terrorists in Mumbai, India. Among the dedicated hotel staff is the renowned chef Hemant Oberoi (Anupam Kher) and a waiter (Academy Award-Nominee Dev Patel, Slumdog Millionaire) who choose to risk their lives to protect their guests. As the world watches on, a desperate couple (Armie Hammer, Call Me By Your Name and Nazanin Boniadi, "Homeland") is forced to make…
DirectorAnthony Maras
CastsAmandeep Singh,Suhail Nayyar,Manoj Mehra,Dinesh Kumar,Amriptal Singh…
Runtime123 min
Khách San Mumbai: Tham Sát Kinh Hoàng


Cat Funeral 2015 mHD BluRay DD5.1 x264-TRiMZapiski Tinto Brassa-Dzhulija 1999 1080p Blu-ray AVC TrueHD 7.1Trumbo 2015 ViE mHD BluRay DD5.1 x264-TRiMAll That Heaven Allows 1955 mHD BluRay FLAC1.0 x264-FreeHDBad Timing 1980 1080p BluRay DD2.0 x264Don't Go Breaking My Heart 2011 1080p BluRay DTS 2Audio x264-CHD

Only members can create comment.