NetHD.org

Husk 2011 720p BluRay x264-7SinS

Download Husk 2011 720p BluRay x264-7SinS 
Small DescriptionScott, Chris, Johnny, Brian and his girlfriend Natalie are traveling together to spend a couple of days together nearby a lake. In a remote road in the limits of a cornfield, Scott hits a crow with his truck and their car breaks down. Johnny crosses the cornfield to seek help in an old farmhouse and vanishes. Brian and Chris cross the cornfield together heading to the house. Meanwhile, Natalie is dragged by something and Scott unsuccessfully tries to help her. Soon, the three friends find that…
Basic Info
Uploaded byAnonymous at 2019-05-15 18:16:05
Action
Social
  • 0
Hot Meter
  • Views: 62
  • Hits: 5
  • Snatched: 1 x time(s)
  • Last Action: 2019-05-24 08:31:19
Peers1 Seeder | 0 Leecher


General
Unique ID                                : 194789776685685733705658255867709125628 (0x928B2579066CFE7FAA5F155C5DA273FC)
Complete name                            : F:\HDBits.org\Husk 2011 720p BluRay x264-7SinS\7sins-husk-2011-720p-bluray-x264.mkv
Format                                   : Matroska
Format version                           : Version 2
File size                                : 3.26 GiB
Duration                                 : 1 h 19 min
Overall bit rate                         : 5 869 kb/s
Encoded date                             : UTC 2011-03-29 18:19:28
Writing application                      : mkvmerge v4.6.0 ('Still Crazy After All These Years') built on Mar 10 2011 02:50:32
Writing library                          : libebml v1.2.0 + libmatroska v1.1.0
 
Video
ID                                       : 1
Format                                   : AVC
Format/Info                              : Advanced Video Codec
Format profile                           : High@L4.1
Format settings, CABAC                   : Yes
Format settings, ReFrames                : 5 frames
Codec ID                                 : V_MPEG4/ISO/AVC
Duration                                 : 1 h 19 min
Bit rate                                 : 4 393 kb/s
Width                                    : 1 280 pixels
Height                                   : 720 pixels
Display aspect ratio                     : 16:9
Frame rate mode                          : Constant
Frame rate                               : 25.000 FPS
Color space                              : YUV
Chroma subsampling                       : 4:2:0
Bit depth                                : 8 bits
Scan type                                : Progressive
Bits/(Pixel*Frame)                       : 0.191
Stream size                              : 2.36 GiB (72%)
Writing library                          : x264 core 114 r1913 5fd3dce
Encoding settings                        : cabac=1 / ref=5 / deblock=1:0:0 / analyse=0x3:0x133 / me=umh / subme=7 / psy=1 / psy_rd=1.00:0.00 / mixed_ref=1 / me_range=16 / chroma_me=1 / trellis=1 / 8x8dct=1 / cqm=0 / deadzone=21,11 / fast_pskip=0 / chroma_qp_offset=-2 / threads=12 / sliced_threads=0 / nr=0 / decimate=1 / interlaced=0 / constrained_intra=0 / bframes=3 / b_pyramid=2 / b_adapt=1 / b_bias=0 / direct=1 / weightb=1 / open_gop=0 / weightp=2 / keyint=250 / keyint_min=25 / scenecut=40 / intra_refresh=0 / rc_lookahead=40 / rc=2pass / mbtree=1 / bitrate=4393 / ratetol=1.0 / qcomp=0.60 / qpmin=0 / qpmax=69 / qpstep=4 / cplxblur=20.0 / qblur=0.5 / ip_ratio=1.40 / aq=1:1.00
Language                                 : English
Default                                  : Yes
Forced                                   : No
 
Audio
ID                                       : 2
Format                                   : DTS
Format/Info                              : Digital Theater Systems
Mode                                     : 16
Format settings, Endianness              : Big
Codec ID                                 : A_DTS
Duration                                 : 1 h 19 min
Bit rate mode                            : Constant
Bit rate                                 : 1 509 kb/s
Channel(s)                               : 6 channels
Channel positions                        : Front: L C R, Side: L R, LFE
Sampling rate                            : 48.0 kHz
Frame rate                               : 93.750 FPS (512 spf)
Bit depth                                : 24 bits
Compression mode                         : Lossy
Stream size                              : 858 MiB (26%)
Language                                 : English
Default                                  : Yes
Forced                                   : No

Husk 2011 720p BluRay x264-7SinS screenshots Husk 2011 720p BluRay x264-7SinS screenshots Husk 2011 720p BluRay x264-7SinS screenshots Husk 2011 720p BluRay x264-7SinS screenshots Husk 2011 720p BluRay x264-7SinS screenshots Husk 2011 720p BluRay x264-7SinS screenshots Husk 2011 720p BluRay x264-7SinS screenshots
TitleHusk
Year2011
Genre
Rating5.2 (8,958 votes)
PlotScott, Chris, Johnny, Brian and his girlfriend Natalie are traveling together to spend a couple of days together nearby a lake. In a remote road in the limits of a cornfield, Scott hits a crow with his truck and their car breaks down. Johnny crosses the cornfield to seek help in an old farmhouse and vanishes. Brian and Chris cross the cornfield together heading to the house. Meanwhile, Natalie is dragged by something and Scott unsuccessfully tries to help her. Soon, the three friends find that…
DirectorBrett Simmons
CastsDevon Graye,Wes Chatham,C.J. Thomason,Tammin Sursok,Ben Easter…
Runtime83 min
Genres
Husk


The Choice 2016 1080p BluRay DD5.1 x264-SA89Gladiator 2000 2in1 1080p BluRay x264-EbPThe Interview 2014 ViE 1080p US Blu-ray AVC DTS-HD MA 5.1-KiDSuspiria 2018 Repack 1080p BluRay DD5.1 x264-SbRKiller Elite 2011 1080p BluRay DD5.1 x264-EbP  Don 2006 720p BluRay DD5.1 x264-EbP

Only members can create comment.