NetHD.org

I’ll Be Skiing Ya 1947 1080p BluRay DTS x264-REGRET

Download I’ll Be Skiing Ya 1947 1080p BluRay DTS x264-REGRET 
Small DescriptionPopeye and Olive are on a winter vacation in Lake Plastered, NY. Popeye is teaching Olive to ice skate (but not doing a very good job); she catches the eye of skating instructor Bluto. But when Bluto takes her up a ski lift and puts the moves on, she calls for Popeye to save her, and soon, everyone is skiing down that hill. Written by Jon Reeves
Basic Info
Uploaded byAnonymous at 2019-07-11 16:00:32
Action
Hot Meter
  • Views: 151
  • Hits: 16
  • Snatched: 6 x time(s)
  • Last Action: 2019-11-13 16:59:36
Peers1 Seeder | 0 Leecher



I’ll Be Skiing Ya 1947 1080p BluRay DTS x264-REGRET screenshots













I’ll Be Skiing Ya 1947 1080p BluRay DTS x264-REGRET screenshots


General
Unique ID                                : 190645854909046850877723710202149918536 (0x8F6D0E5AE2090326BE5C4784064CD748)
Complete name                            : K:\popeye-ill.be.skiing.ya.1947.1080p.bluray.x264-regret.mkv
Format                                   : Matroska
Format version                           : Version 4 / Version 2
File size                                : 370 MiB
Duration                                 : 7 min 25 s
Overall bit rate                         : 6 969 kb/s
Encoded date                             : UTC 2019-07-05 17:21:37
Writing application                      : mkvmerge v8.3.0 ('Over the Horizon') 64bit
Writing library                          : libebml v1.3.1 + libmatroska v1.4.2

Video
ID                                       : 1
Format                                   : AVC
Format/Info                              : Advanced Video Codec
Format profile                           : High@L4.1
Format settings                          : CABAC / 4 Ref Frames
Format settings, CABAC                   : Yes
Format settings, RefFrames               : 4 frames
Codec ID                                 : V_MPEG4/ISO/AVC
Duration                                 : 7 min 25 s
Bit rate                                 : 5 465 kb/s
Width                                    : 1 488 pixels
Height                                   : 1 080 pixels
Display aspect ratio                     : 1.378
Frame rate mode                          : Constant
Frame rate                               : 23.976 (24000/1001) FPS
Color space                              : YUV
Chroma subsampling                       : 4:2:0
Bit depth                                : 8 bits
Scan type                                : Progressive
Bits/(Pixel*Frame)                       : 0.142
Stream size                              : 290 MiB (78%)
Writing library                          : x264 core 157 r2935 545de2f
Encoding settings                        : cabac=1 / ref=4 / deblock=1:-3:-3 / analyse=0x3:0x133 / me=umh / subme=9 / psy=1 / psy_rd=1.00:0.00 / mixed_ref=1 / me_range=16 / chroma_me=1 / trellis=2 / 8x8dct=1 / cqm=0 / deadzone=21,11 / fast_pskip=0 / chroma_qp_offset=-2 / threads=24 / lookahead_threads=2 / sliced_threads=0 / nr=0 / decimate=1 / interlaced=0 / bluray_compat=0 / constrained_intra=0 / bframes=3 / b_pyramid=2 / b_adapt=1 / b_bias=0 / direct=3 / weightb=1 / open_gop=0 / weightp=2 / keyint=240 / keyint_min=24 / scenecut=40 / intra_refresh=0 / rc_lookahead=50 / rc=2pass / mbtree=1 / bitrate=5465 / ratetol=1.0 / qcomp=0.60 / qpmin=0 / qpmax=69 / qpstep=4 / cplxblur=20.0 / qblur=0.5 / ip_ratio=1.40 / aq=1:1.00
Language                                 : English
Default                                  : Yes
Forced                                   : No

Audio
ID                                       : 2
Format                                   : DTS
Format/Info                              : Digital Theater Systems
Codec ID                                 : A_DTS
Duration                                 : 7 min 25 s
Bit rate mode                            : Constant
Bit rate                                 : 1 509 kb/s
Channel(s)                               : 2 channels
Channel positions                        : Front: L R
Sampling rate                            : 48.0 kHz
Frame rate                               : 93.750 FPS (512 SPF)
Bit depth                                : 24 bits
Compression mode                         : Lossy
Stream size                              : 80.1 MiB (22%)
Language                                 : English
Default                                  : Yes
Forced                                   : No

Text #1
ID                                       : 3
Format                                   : UTF-8
Codec ID                                 : S_TEXT/UTF8
Codec ID/Info                            : UTF-8 Plain Text
Duration                                 : 5 min 44 s
Bit rate                                 : 25 b/s
Count of elements                        : 44
Stream size                              : 1.08 KiB (0%)
Title                                    : English
Language                                 : English
Default                                  : No
Forced                                   : No

Text #2
ID                                       : 4
Format                                   : UTF-8
Codec ID                                 : S_TEXT/UTF8
Codec ID/Info                            : UTF-8 Plain Text
Duration                                 : 6 min 50 s
Bit rate                                 : 33 b/s
Count of elements                        : 96
Stream size                              : 1.70 KiB (0%)
Title                                    : English SDH
Language                                 : English
Default                                  : No
Forced                                   : No













I’ll Be Skiing Ya 1947 1080p BluRay DTS x264-REGRET screenshots


I’ll Be Skiing Ya 1947 1080p BluRay DTS x264-REGRET screenshotsI’ll Be Skiing Ya 1947 1080p BluRay DTS x264-REGRET screenshotsI’ll Be Skiing Ya 1947 1080p BluRay DTS x264-REGRET screenshots
I’ll Be Skiing Ya 1947 1080p BluRay DTS x264-REGRET screenshotsI’ll Be Skiing Ya 1947 1080p BluRay DTS x264-REGRET screenshotsI’ll Be Skiing Ya 1947 1080p BluRay DTS x264-REGRET screenshots


TitleI'll Be Skiing Ya
Year1947
Genre
Rating6.5 (45 votes)
PlotPopeye and Olive are on a winter vacation in Lake Plastered, NY. Popeye is teaching Olive to ice skate (but not doing a very good job); she catches the eye of skating instructor Bluto. But when Bluto takes her up a ski lift and puts the moves on, she calls for Popeye to save her, and soon, everyone is skiing down that hill. Written by Jon Reeves
DirectorIzzy Sparber
CastsJackson Beck,Jack Mercer,Mae Questel
Runtime7 min
I


Kung Fu Panda 3 2016 720p BluRay DTS-ES x264-CRiMEHigh Note 1960 720p BluRay DD1.0 x264-EbP The Princess and the Frog 2009 2160p UHD Blu-ray HEVC TrueHD 7.1-AViATORThe House Of Magic 2013 1080p BluRay DTS x264-VietHDCleopatra 1970 1080p BluRay DTS x264-HaiKUThe Tom and Jerry Show S01E02 1080p WEB-DL AAC2 0 H.264-YFN

Only members can create comment.