NetHD.org

Ice Age The Great Egg-Scapade 2016 1080p AMZN WEB-DL DDP5.1 x264-ABM

Download Ice Age The Great Egg-Scapade 2016 1080p AMZN WEB-DL DDP5.1 x264-ABM 
Small DescriptionScrat, Manny, Sid, Diego and the rest of your prehistoric pals from Ice Age are back for an all-new hilarious animated adventure! Business is booming at Sid's new egg-sitting service but when the dastardly pirate bunny Squint steals the eggs, Manny, Diego, and the rest of the gang take off on a daring rescue mission that turns into the world's first egg hunt.
Basic Info
Uploaded byAnonymous at 2019-05-15 21:47:06
Action
Hot Meter
  • Views: 125
  • Hits: 14
  • Snatched: 8 x time(s)
  • Last Action: 2019-07-17 20:43:02
Peers0 Seeder | 0 Leecher



General
Unique ID                                : 179352565210129735225071885166064526071 (0x86EE0C2F203FF481A596D3D1792962F7)
Format                                   : Matroska
Format version                           : Version 4 / Version 2
File size                                : 4.17 GiB
Duration                                 : 1 h 12 min
Overall bit rate mode                    : Variable
Overall bit rate                         : 8 232 kb/s
Encoded date                             : UTC 2018-07-25 19:19:41
Writing application                      : mkvmerge v13.0.0 ('The Juggler') 64bit
Writing library                          : libebml v1.3.4 + libmatroska v1.4.5
 
Video
ID                                       : 1
Format                                   : AVC
Format/Info                              : Advanced Video Codec
Format profile                           : High@L4
Format settings, CABAC                   : Yes
Format settings, ReFrames                : 4 frames
Codec ID                                 : V_MPEG4/ISO/AVC
Duration                                 : 1 h 12 min
Bit rate mode                            : Variable
Bit rate                                 : 7 590 kb/s
Maximum bit rate                         : 15.0 Mb/s
Width                                    : 1 920 pixels
Height                                   : 1 080 pixels
Display aspect ratio                     : 16:9
Frame rate mode                          : Constant
Frame rate                               : 23.976 (24000/1001) FPS
Color space                              : YUV
Chroma subsampling                       : 4:2:0
Bit depth                                : 8 bits
Scan type                                : Progressive
Bits/(Pixel*Frame)                       : 0.153
Stream size                              : 3.85 GiB (92%)
Writing library                          : x264 core 148 r2623 d5b2374
Encoding settings                        : cabac=1 / ref=4 / deblock=1:-1:-1 / analyse=0x3:0x133 / me=umh / subme=9 / psy=1 / psy_rd=1.00:0.15 / mixed_ref=1 / me_range=24 / chroma_me=1 / trellis=2 / 8x8dct=1 / cqm=0 / deadzone=21,11 / fast_pskip=1 / chroma_qp_offset=-3 / threads=34 / lookahead_threads=5 / sliced_threads=0 / nr=150 / decimate=1 / interlaced=0 / bluray_compat=0 / constrained_intra=0 / bframes=8 / b_pyramid=2 / b_adapt=2 / b_bias=0 / direct=3 / weightb=1 / open_gop=0 / weightp=2 / keyint=120 / keyint_min=61 / scenecut=0 / intra_refresh=0 / rc_lookahead=120 / rc=crf / mbtree=1 / crf=18.0 / qcomp=0.60 / qpmin=0 / qpmax=69 / qpstep=4 / vbv_maxrate=15000 / vbv_bufsize=31250 / crf_max=0.0 / nal_hrd=vbr / filler=0 / ip_ratio=1.40 / aq=3:1.00
Default                                  : Yes
Forced                                   : No
Color range                              : Limited
Color primaries                          : BT.709
Transfer characteristics                 : BT.709
Matrix coefficients                      : BT.709
 
Audio
ID                                       : 2
Format                                   : E-AC-3
Format/Info                              : Enhanced Audio Coding 3
Format settings, Endianness              : Big
Codec ID                                 : A_EAC3
Duration                                 : 1 h 12 min
Bit rate mode                            : Constant
Bit rate                                 : 640 kb/s
Channel(s)                               : 6 channels
Channel positions                        : Front: L C R, Side: L R, LFE
Sampling rate                            : 48.0 kHz
Frame rate                               : 187.500 FPS (256 spf)
Compression mode                         : Lossy
Stream size                              : 332 MiB (8%)
Language                                 : English
Service kind                             : Complete Main
Default                                  : Yes
Forced                                   : No

Ice Age The Great Egg-Scapade 2016 1080p AMZN WEB-DL DDP5.1 x264-ABM screenshots Ice Age The Great Egg-Scapade 2016 1080p AMZN WEB-DL DDP5.1 x264-ABM screenshots Ice Age The Great Egg-Scapade 2016 1080p AMZN WEB-DL DDP5.1 x264-ABM screenshots Ice Age The Great Egg-Scapade 2016 1080p AMZN WEB-DL DDP5.1 x264-ABM screenshots
TitleIce Age: The Great Egg-Scapade
Year2016
Genre
Rating5.9 (2,701 votes)
PlotScrat, Manny, Sid, Diego and the rest of your prehistoric pals from Ice Age are back for an all-new hilarious animated adventure! Business is booming at Sid's new egg-sitting service but when the dastardly pirate bunny Squint steals the eggs, Manny, Diego, and the rest of the gang take off on a daring rescue mission that turns into the world's first egg hunt.
DirectorPaul Stodolny,Ricardo Curtis,Steve Martino
CastsBlake Anderson,Tyree Brown,David Cowgill,Jennifer Elrod,Lili Estefan…
Runtime25 min
Ice Age: The Great Egg-Scapade


Daybreakers 2009 1080p Blu-ray VC1 DTS-HD MA 5.1-HDSpaceAngels & Demons 2009 2in1 mHD BluRay DD5.1 x264-TRiMBeyond Skyline 2017 mHD BluRay DD5.1 x264-TRiMDeath Rides a Horse 1967 720p BluRay DD2 0 x264-LolHDOutcast 2014 1080p BluRay DTS x264-CADAVERTomb Raider 2018 720p BluRay DD5.1x264-SbR

Only members can create comment.