NetHD.org

Imaginaerum 2012 1080p BluRay Remux AVC DTS-HD MA 5.1-PTer

Download Imaginaerum 2012 1080p BluRay Remux AVC DTS-HD MA 5.1-PTer 
Small DescriptionImaginaerum tells the story of an elderly composer, Tom, who suffers from severe dementia. As he has had the disease for years and has regressed into childhood, he remembers practically nothing from his adult life. His music, friends, all his past including the memory of his daughter are a blur in his fragile mind. All he has left is the imagination of a ten year old boy. As he drifts away into coma, it seems impossible to get back what he has lost. Or is it? The film is a journey between two…
Basic Info
Uploaded byAncREOsH (Power User) at 2020-10-18 04:48:02
Action
Hot Meter
  • Views: 144
  • Hits: 10
  • Snatched: 6 x time(s)
  • Last Action: 2020-10-26 14:59:51
Peers3 Seeder | 0 Leecher




CODE
General
Unique ID : 240295369527874626347452854859268107625 (0xB4C7346B9E6B7956578B074C27482D69)
Complete name : Imaginaerum 2014 1080p Blu-ray Remux AVC DTS-HD MA 5.1-PTer.mkv
Format : Matroska
Format version : Version 4
File size : 18.3 GiB
Duration : 1 h 25 min
Overall bit rate mode : Variable
Overall bit rate : 30.5 Mb/s
Encoded date : UTC 2020-10-17 20:39:35
Writing application : mkvmerge v51.0.0 ('I Wish') 64-bit
Writing library : libebml v1.4.0 + libmatroska v1.6.2

Video
ID : 1
Format : AVC
Format/Info : Advanced Video Codec
Format profile : High@L4.1
Format settings : CABAC / 3 Ref Frames
Format settings, CABAC : Yes
Format settings, Reference frames : 3 frames
Codec ID : V_MPEG4/ISO/AVC
Duration : 1 h 25 min
Bit rate mode : Variable
Bit rate : 28.0 Mb/s
Maximum bit rate : 39.0 Mb/s
Width : 1 920 pixels
Height : 1 080 pixels
Display aspect ratio : 16:9
Frame rate mode : Constant
Frame rate : 23.976 (24000/1001) FPS
Standard : NTSC
Color space : YUV
Chroma subsampling : 4:2:0
Bit depth : 8 bits
Scan type : Progressive
Bits/(Pixel*Frame) : 0.563
Stream size : 16.8 GiB (92%)
Default : Yes
Forced : No
Color range : Limited
Color primaries : BT.709
Transfer characteristics : BT.709
Matrix coefficients : BT.709

Audio
ID : 2
Format : DTS XLL
Format/Info : Digital Theater Systems
Commercial name : DTS-HD Master Audio
Codec ID : A_DTS
Duration : 1 h 25 min
Bit rate mode : Variable
Bit rate : 2 539 kb/s
Channel(s) : 6 channels
Channel layout : C L R Ls Rs LFE
Sampling rate : 48.0 kHz
Frame rate : 93.750 FPS (512 SPF)
Bit depth : 16 bits
Compression mode : Lossless
Stream size : 1.52 GiB (8%)
Title : English
Language : English
Default : Yes
Forced : No

Menu
00:00:00.000 : en:Chapter 01
00:06:25.927 : en:Chapter 02
00:13:56.794 : en:Chapter 03
00:19:58.656 : en:Chapter 04
00:25:48.589 : en:Chapter 05
00:32:23.233 : en:Chapter 06
00:39:00.880 : en:Chapter 07
00:47:40.274 : en:Chapter 08
00:57:16.224 : en:Chapter 09
01:04:39.084 : en:Chapter 10
01:11:55.770 : en:Chapter 11
01:18:53.395 : en:Chapter 12


Imaginaerum 2012 1080p BluRay Remux AVC DTS-HD MA 5.1-PTer screenshotsImaginaerum 2012 1080p BluRay Remux AVC DTS-HD MA 5.1-PTer screenshotsImaginaerum 2012 1080p BluRay Remux AVC DTS-HD MA 5.1-PTer screenshotsImaginaerum 2012 1080p BluRay Remux AVC DTS-HD MA 5.1-PTer screenshotsImaginaerum 2012 1080p BluRay Remux AVC DTS-HD MA 5.1-PTer screenshotsImaginaerum 2012 1080p BluRay Remux AVC DTS-HD MA 5.1-PTer screenshots
TitleImaginaerum
Year2012
GenreDrama
Rating6.2 (6,019 votes)
PlotImaginaerum tells the story of an elderly composer, Tom, who suffers from severe dementia. As he has had the disease for years and has regressed into childhood, he remembers practically nothing from his adult life. His music, friends, all his past including the memory of his daughter are a blur in his fragile mind. All he has left is the imagination of a ten year old boy. As he drifts away into coma, it seems impossible to get back what he has lost. Or is it? The film is a journey between two…
DirectorStobe Harju / Mark Roper
CastsFrancis X. McCarthy / Glenda Braganza / Helene Robbie / Ilkka Villi / Elias Toufexis…
Runtime86 min
Imaginaerum

No keyword! (Click to edit!)

A Frozen Flower 2008 Director's Cut 1080p DTS x264-HDChinaCafé de Flore 2011 720p BluRay DD5.1 x264-EbPThe Devil Has a Name 2019 1080p AMZN WEB-DL DDP5.1 H.264-NTGSubmission 2017 1080p BluRay DD5.1 x264-DONBillions S01 1080p BluRay DD5.1 x264-SA89Decadencia 2014 mHD BluRay DD5.1 x264-TRiM