NetHD.org

In the Cold of the Night 1990 720p BluRay DD2.0 x264

Download In the Cold of the Night 1990 720p BluRay DD2.0 x264 
Small Description18+
Basic Info
Uploaded byAnonymous at 2019-07-07 12:04:27
Action
Hot Meter
  • Views: 1570
  • Hits: 281
  • Snatched: 225 x time(s)
  • Last Action: 2019-07-22 19:49:34
Peers42 Seeder | 0 Leecher



In the Cold of the Night 1990 720p BluRay DD2.0 x264 screenshots













In the Cold of the Night 1990 720p BluRay DD2.0 x264 screenshots


General
Unique ID                                : 234233335905235140762850538731858014374 (0xB037B316527F7EB002029F251643B0A6)
Complete name                            : F:\MOVIE\In the Cold of the Night. BDRip 720p.mkv
Format                                   : Matroska
Format version                           : Version 4 / Version 2
File size                                : 2.24 GiB
Duration                                 : 1 h 52 min
Overall bit rate                         : 2 849 kb/s
Encoded date                             : UTC 2019-05-14 08:03:42
Writing application                      : mkvmerge v33.1.0 ('Primrose') 64-bit
Writing library                          : libebml v1.3.7 + libmatroska v1.5.0

Video
ID                                       : 1
Format                                   : AVC
Format/Info                              : Advanced Video Codec
Format profile                           : Main@L4
Format settings                          : CABAC / 9 Ref Frames
Format settings, CABAC                   : Yes
Format settings, RefFrames               : 9 frames
Codec ID                                 : V_MPEG4/ISO/AVC
Duration                                 : 1 h 52 min
Bit rate                                 : 2 431 kb/s
Width                                    : 1 280 pixels
Height                                   : 720 pixels
Display aspect ratio                     : 16:9
Frame rate mode                          : Constant
Frame rate                               : 23.976 (24000/1001) FPS
Color space                              : YUV
Chroma subsampling                       : 4:2:0
Bit depth                                : 8 bits
Scan type                                : Progressive
Bits/(Pixel*Frame)                       : 0.110
Stream size                              : 1.91 GiB (85%)
Writing library                          : x264 core 148 r2708 86b7198
Encoding settings                        : cabac=1 / ref=9 / deblock=1:-1:-1 / analyse=0x1:0x131 / me=tesa / subme=11 / psy=1 / psy_rd=1.00:0.15 / mixed_ref=1 / me_range=24 / chroma_me=1 / trellis=2 / 8x8dct=0 / cqm=0 / deadzone=21,11 / fast_pskip=0 / chroma_qp_offset=-3 / threads=22 / lookahead_threads=5 / sliced_threads=0 / nr=0 / decimate=1 / interlaced=0 / bluray_compat=0 / constrained_intra=0 / bframes=16 / b_pyramid=2 / b_adapt=2 / b_bias=0 / direct=3 / weightb=1 / open_gop=0 / weightp=2 / keyint=240 / keyint_min=24 / scenecut=40 / intra_refresh=0 / rc_lookahead=60 / rc=crf / mbtree=1 / crf=22.0 / qcomp=0.60 / qpmin=0 / qpmax=69 / qpstep=4 / vbv_maxrate=20000 / vbv_bufsize=25000 / crf_max=0.0 / nal_hrd=none / filler=0 / ip_ratio=1.40 / aq=1:1.00
Language                                 : English
Default                                  : Yes
Forced                                   : No
Color range                              : Limited
Color primaries                          : BT.709
Transfer characteristics                 : BT.709
Matrix coefficients                      : BT.709

Audio #1
ID                                       : 2
Format                                   : AC-3
Format/Info                              : Audio Coding 3
Codec ID                                 : A_AC3
Duration                                 : 1 h 52 min
Bit rate mode                            : Constant
Bit rate                                 : 192 kb/s
Channel(s)                               : 2 channels
Channel positions                        : Front: L R
Sampling rate                            : 48.0 kHz
Frame rate                               : 31.250 FPS (1536 SPF)
Bit depth                                : 16 bits
Compression mode                         : Lossy
Stream size                              : 155 MiB (7%)
Title                                    : Юрий Живов
Language                                 : Russian
Service kind                             : Complete Main
Default                                  : Yes
Forced                                   : No

Audio #2
ID                                       : 3
Format                                   : AC-3
Format/Info                              : Audio Coding 3
Codec ID                                 : A_AC3
Duration                                 : 1 h 52 min
Bit rate mode                            : Constant
Bit rate                                 : 224 kb/s
Channel(s)                               : 6 channels
Channel positions                        : Front: L C R, Side: L R, LFE
Sampling rate                            : 48.0 kHz
Frame rate                               : 31.250 FPS (1536 SPF)
Bit depth                                : 16 bits
Compression mode                         : Lossy
Stream size                              : 181 MiB (8%)
Language                                 : English
Service kind                             : Complete Main
Default                                  : No
Forced                                   : No

Text #1
ID                                       : 4
Format                                   : UTF-8
Codec ID                                 : S_TEXT/UTF8
Codec ID/Info                            : UTF-8 Plain Text
Duration                                 : 1 h 49 min
Bit rate                                 : 62 b/s
Count of elements                        : 743
Stream size                              : 49.8 KiB (0%)
Language                                 : Russian
Default                                  : No
Forced                                   : No

Text #2
ID                                       : 5
Format                                   : UTF-8
Codec ID                                 : S_TEXT/UTF8
Codec ID/Info                            : UTF-8 Plain Text
Duration                                 : 1 h 52 min
Bit rate                                 : 47 b/s
Count of elements                        : 1393
Stream size                              : 39.2 KiB (0%)
Language                                 : English
Default                                  : No
Forced                                   : No













In the Cold of the Night 1990 720p BluRay DD2.0 x264 screenshots


In the Cold of the Night 1990 720p BluRay DD2.0 x264 screenshotsIn the Cold of the Night 1990 720p BluRay DD2.0 x264 screenshotsIn the Cold of the Night 1990 720p BluRay DD2.0 x264 screenshots
In the Cold of the Night 1990 720p BluRay DD2.0 x264 screenshotsIn the Cold of the Night 1990 720p BluRay DD2.0 x264 screenshotsIn the Cold of the Night 1990 720p BluRay DD2.0 x264 screenshots

TitleIn the Cold of the Night
Year1990
Genre
Rating3.6 (496 votes)
PlotScott is a fashion photographer concerned about the sudden appearance of nightmares in his nightly dreams. In these, he seems to be involved in the murder of a beautiful young woman. When he actually meets this dreamwoman in reality, he begins to suspect that something strange must be responsible. As he attempts to solve the enigma of his troubling dreams, he is falling deeply in love with the mysterious woman. In the end, he uncovers a diabolical and sinister plot.... Written by Tad Dibbern
DirectorNico Mastorakis
CastsJeff Lester,Adrianne Sachs,Marc Singer,Brian Thompson,Shannon Tweed…
Runtime112 min
In the Cold of the Night


Hidden Agenda 1990 1080p BluRay DD2.0 x264-REKTHeartland S01 720p BluRay DD5.1 x264-NTbStations of the Cross 2014 mHD BluRay DD5.1 x264-TRiMStranger Things S02 720p REPACK NF WEBRip DD5.1 x264 NTbCaligula 1979 Extended Uncensored 720p BluRay DD5.1 x264-CtrlHDThe Exception 2016 ViE 1080p WEB-DL DD5.1 H264-[FGT-JadViE]

Only members can create comment.