Incredibles 2 2018 1080p BluRay REMUX AVC DTS-HD MA 7.1-EPSiLON

Download Incredibles 2 2018 1080p BluRay REMUX AVC DTS-HD MA 7.1-EPSiLON Free
Small DescriptionGia Đình Siêu Nhân 2
Basic Info
Uploaded bylouis199x (Pig) at 2018-11-02 09:24:14
Action
Social
  • 8
Hot Meter
  • Views: 356
  • Hits: 53
  • Snatched: 36 x time(s)
  • Last Action: 2018-11-15 19:25:52
Peers11 Seeder | 0 Leecher
Incredibles 2 2018 1080p BluRay REMUX AVC DTS-HD MA 7.1-EPSiLON screenshots Incredibles 2 2018 1080p BluRay REMUX AVC DTS-HD MA 7.1-EPSiLON screenshots Incredibles 2 2018 1080p BluRay REMUX AVC DTS-HD MA 7.1-EPSiLON screenshots Incredibles 2 2018 1080p BluRay REMUX AVC DTS-HD MA 7.1-EPSiLON screenshots Incredibles 2 2018 1080p BluRay REMUX AVC DTS-HD MA 7.1-EPSiLON screenshots Incredibles 2 2018 1080p BluRay REMUX AVC DTS-HD MA 7.1-EPSiLON screenshots Incredibles 2 2018 1080p BluRay REMUX AVC DTS-HD MA 7.1-EPSiLON screenshots Incredibles 2 2018 1080p BluRay REMUX AVC DTS-HD MA 7.1-EPSiLON screenshots Incredibles 2 2018 1080p BluRay REMUX AVC DTS-HD MA 7.1-EPSiLON screenshots

Quote
General
Unique ID                                : 317767631523219353073687072715624264004 (0xEF0FD1D740E55F002CBF21F1C6C9B144)
Complete name                            : Incredibles.2.2018.1080p.BluRay.REMUX.AVC.DTS-HD.MA.7.1-EPSiLON.mkv
Format                                   : Matroska
Format version                           : Version 4
File size                                : 21.6 GiB
Duration                                 : 1 h 57 min
Overall bit rate mode                    : Variable
Overall bit rate                         : 26.2 Mb/s
Encoded date                             : UTC 2018-11-01 23:22:31
Writing application                      : mkvmerge v28.2.0 ('The Awakening') 64-bit
Writing library                          : libebml v1.3.6 + libmatroska v1.4.9

Video
ID                                       : 1
Format                                   : AVC
Format/Info                              : Advanced Video Codec
Format profile                           : High@L4.1
Format settings                          : CABAC / 4 Ref Frames
Format settings, CABAC                   : Yes
Format settings, ReFrames                : 4 frames
Format settings, GOP                     : M=1, N=12
Codec ID                                 : V_MPEG4/ISO/AVC
Duration                                 : 1 h 57 min
Bit rate mode                            : Variable
Bit rate                                 : 21.0 Mb/s
Maximum bit rate                         : 29.7 Mb/s
Width                                    : 1 920 pixels
Height                                   : 1 080 pixels
Display aspect ratio                     : 16:9
Frame rate mode                          : Constant
Frame rate                               : 23.976 (24000/1001) FPS
Color space                              : YUV
Chroma subsampling                       : 4:2:0
Bit depth                                : 8 bits
Scan type                                : Progressive
Bits/(Pixel*Frame)                       : 0.422
Stream size                              : 17.3 GiB (80%)
Title                                    : MPEG-4 AVC Video / 21045 kbps / 1080p / 23.976 fps / 16:9 / High Profile 4.1
Language                                 : English
Default                                  : Yes
Forced                                   : No

Audio #1
ID                                       : 2
Format                                   : DTS XLL
Format/Info                              : Digital Theater Systems
Commercial name                          : DTS-HD Master Audio
Codec ID                                 : A_DTS
Duration                                 : 1 h 57 min
Bit rate mode                            : Variable
Bit rate                                 : 4 490 kb/s
Channel(s)                               : 8 channels
Channel layout                           : C L R LFE Lb Rb Lss Rss
Sampling rate                            : 48.0 kHz
Frame rate                               : 93.750 FPS (512 SPF)
Bit depth                                : 24 bits
Compression mode                         : Lossless
Stream size                              : 3.70 GiB (17%)
Title                                    : DTS-HD Master Audio / 7.1 / 48 kHz /  4491 kbps / 24-bit
Language                                 : English
Default                                  : Yes
Forced                                   : No

Audio #2
ID                                       : 3
Format                                   : AC-3
Format/Info                              : Audio Coding 3
Commercial name                          : Dolby Digital
Codec ID                                 : A_AC3
Duration                                 : 1 h 57 min
Bit rate mode                            : Constant
Bit rate                                 : 320 kb/s
Channel(s)                               : 2 channels
Channel layout                           : L R
Sampling rate                            : 48.0 kHz
Frame rate                               : 31.250 FPS (1536 SPF)
Bit depth                                : 16 bits
Compression mode                         : Lossy
Stream size                              : 270 MiB (1%)
Title                                    : Commentary by animators, Dave Mullins, Alan Barillaro, Tony Fucile, and Bret 'Brook' Parker
Language                                 : English
Service kind                             : Complete Main
Default                                  : No
Forced                                   : No

Text #1
ID                                       : 4
Format                                   : PGS
Codec ID                                 : S_HDMV/PGS
Codec ID/Info                            : Picture based subtitle format used on BDs/HD-DVDs
Duration                                 : 1 h 56 min
Bit rate                                 : 42.7 kb/s
Count of elements                        : 3522
Stream size                              : 35.5 MiB (0%)
Language                                 : English
Default                                  : No
Forced                                   : No

Text #2
ID                                       : 5
Format                                   : PGS
Codec ID                                 : S_HDMV/PGS
Codec ID/Info                            : Picture based subtitle format used on BDs/HD-DVDs
Duration                                 : 1 h 56 min
Bit rate                                 : 24.7 kb/s
Count of elements                        : 3526
Stream size                              : 20.5 MiB (0%)
Language                                 : Chinese
Default                                  : No
Forced                                   : No

Text #3
ID                                       : 6
Format                                   : PGS
Codec ID                                 : S_HDMV/PGS
Codec ID/Info                            : Picture based subtitle format used on BDs/HD-DVDs
Duration                                 : 1 h 56 min
Bit rate                                 : 34.1 kb/s
Count of elements                        : 3542
Stream size                              : 28.3 MiB (0%)
Language                                 : Chinese
Default                                  : No
Forced                                   : No

Text #4
ID                                       : 7
Format                                   : PGS
Codec ID                                 : S_HDMV/PGS
Codec ID/Info                            : Picture based subtitle format used on BDs/HD-DVDs
Duration                                 : 1 h 56 min
Bit rate                                 : 27.9 kb/s
Count of elements                        : 3526
Stream size                              : 23.2 MiB (0%)
Language                                 : Chinese
Default                                  : No
Forced                                   : No

Text #5
ID                                       : 8
Format                                   : PGS
Codec ID                                 : S_HDMV/PGS
Codec ID/Info                            : Picture based subtitle format used on BDs/HD-DVDs
Duration                                 : 1 h 56 min
Bit rate                                 : 24.0 kb/s
Count of elements                        : 3518
Stream size                              : 19.9 MiB (0%)
Language                                 : Korean
Default                                  : No
Forced                                   : No

Text #6
ID                                       : 9
Format                                   : PGS
Codec ID                                 : S_HDMV/PGS
Codec ID/Info                            : Picture based subtitle format used on BDs/HD-DVDs
Duration                                 : 1 h 56 min
Bit rate                                 : 41.4 kb/s
Count of elements                        : 3484
Stream size                              : 34.4 MiB (0%)
Language                                 : Portuguese
Default                                  : No
Forced                                   : No

Text #7
ID                                       : 10
Format                                   : PGS
Codec ID                                 : S_HDMV/PGS
Codec ID/Info                            : Picture based subtitle format used on BDs/HD-DVDs
Duration                                 : 1 h 56 min
Bit rate                                 : 25.4 kb/s
Count of elements                        : 3526
Stream size                              : 21.1 MiB (0%)
Language                                 : Thai
Default                                  : No
Forced                                   : No

Text #8
ID                                       : 11
Format                                   : PGS
Codec ID                                 : S_HDMV/PGS
Codec ID/Info                            : Picture based subtitle format used on BDs/HD-DVDs
Duration                                 : 1 h 56 min
Bit rate                                 : 65.3 kb/s
Count of elements                        : 3896
Stream size                              : 54.7 MiB (0%)
Title                                    : Commentary by animators, Dave Mullins, Alan Barillaro, Tony Fucile, and Bret 'Brook' Parker
Language                                 : English
Default                                  : No
Forced                                   : No

Text #9
ID                                       : 12
Format                                   : PGS
Codec ID                                 : S_HDMV/PGS
Codec ID/Info                            : Picture based subtitle format used on BDs/HD-DVDs
Duration                                 : 1 h 56 min
Bit rate                                 : 32.3 kb/s
Count of elements                        : 4167
Stream size                              : 26.8 MiB (0%)
Title                                    : Commentary by animators, Dave Mullins, Alan Barillaro, Tony Fucile, and Bret 'Brook' Parker
Language                                 : Chinese
Default                                  : No
Forced                                   : No

Text #10
ID                                       : 13
Format                                   : PGS
Codec ID                                 : S_HDMV/PGS
Codec ID/Info                            : Picture based subtitle format used on BDs/HD-DVDs
Duration                                 : 1 h 56 min
Bit rate                                 : 43.6 kb/s
Count of elements                        : 3898
Stream size                              : 36.5 MiB (0%)
Title                                    : Commentary by animators, Dave Mullins, Alan Barillaro, Tony Fucile, and Bret 'Brook' Parker
Language                                 : Chinese
Default                                  : No
Forced                                   : No

Text #11
ID                                       : 14
Format                                   : PGS
Codec ID                                 : S_HDMV/PGS
Codec ID/Info                            : Picture based subtitle format used on BDs/HD-DVDs
Duration                                 : 1 h 56 min
Bit rate                                 : 30.9 kb/s
Count of elements                        : 3900
Stream size                              : 25.9 MiB (0%)
Title                                    : Commentary by animators, Dave Mullins, Alan Barillaro, Tony Fucile, and Bret 'Brook' Parker
Language                                 : Korean
Default                                  : No
Forced                                   : No

Text #12
ID                                       : 15
Format                                   : PGS
Codec ID                                 : S_HDMV/PGS
Codec ID/Info                            : Picture based subtitle format used on BDs/HD-DVDs
Duration                                 : 1 h 56 min
Bit rate                                 : 54.8 kb/s
Count of elements                        : 3900
Stream size                              : 45.9 MiB (0%)
Title                                    : Commentary by animators, Dave Mullins, Alan Barillaro, Tony Fucile, and Bret 'Brook' Parker
Language                                 : Portuguese
Default                                  : No
Forced                                   : No

Menu
00:00:00.000                             : en:Tony Interrogation
00:03:22.327                             : en:Incredibles vs Underminer
00:08:53.616                             : en:Chewed Out
00:09:36.784                             : en:Family Dinner
00:13:38.276                             : en:Poolside
00:15:44.735                             : en:Deavor Meets Supers
00:21:19.737                             : en:Pillow Talk
00:23:28.282                             : en:New House
00:27:08.794                             : en:Where's Mom?
00:28:59.571                             : en:Runaway Train
00:35:10.900                             : en:Raccoon Fight
00:39:07.845                             : en:Helen Checks In
00:42:43.894                             : en:Tony Forgets
00:43:42.411                             : en:Air Rescue
00:47:35.352                             : en:Breakfast Blowup
00:48:53.889                             : en:Triumph Return
00:54:15.585                             : en:Vi Embarrassed
00:56:16.039                             : en:Tracking Screenslaver
01:00:58.696                             : en:Screenslaver Caught
01:02:01.884                             : en:Breaking Point
01:06:55.511                             : en:E The Babysitter
01:09:18.237                             : en:Helen Reviews Footage
01:11:28.200                             : en:Bob's Apology
01:12:37.686                             : en:Helen Slips Away
01:14:39.266                             : en:Auntie E
01:18:00.968                             : en:Cold Room
01:20:32.536                             : en:House Attack
01:25:01.930                             : en:Kids Alone
01:27:59.440                             : en:Super Signing
01:31:53.925                             : en:Kids To The Rescue
01:33:26.434                             : en:Trap Is Sprung
01:36:25.237                             : en:Battle Royale
01:37:45.192                             : en:Save The Day
01:43:56.897                             : en:Resolution
01:45:35.912                             : en:Epilogue
01:47:30.902                             : en:End Credits


TitleIncredibles 2
Year2018
Genre
Rating7.9 (128,905 votes)
PlotWhile the Parr family has accepted its collective calling as superheroes, the fact remains that their special heroism is still illegal. After they are arrested after unsuccessfully trying to stop the Underminer, their future seems bleak. However, the wealthy Deavor siblings of Devtech offer new hope with a bold project to rehabilitate the public image and legal status of Supers, with Elastigirl being assigned on point to be the shining example. Now having agreed for now to stay at home to care…
DirectorBrad Bird
CastsCraig T. Nelson,Holly Hunter,Sarah Vowell,Huck Milner,Catherine Keener…
Runtime118 min
Genres
Incredibles 2


Tags

Other releases

Same genre with Incredibles 2 2018 1080p BluRay REMUX AVC DTS-HD MA 7.1-EPSiLON

Incredibles 2 2018 mHD BluRay DD5.1 x264-RCA Folktales from Japan - 34 AVC AAC 720p x264 - HorribleSubsThe Little Mermaid: Ariel's Beginning 2008 720p BluRay x264-CtrlHDAngry Birds 2016 720p BluRay DD5.1 x264-OmertaHDThe Peanuts Movie 2015 1080p 3D ViE  Blu-ray AVC DTS-HD MA 7.1-MTeamBeauty and the Beast: The Enchanted Christmas 1997 1080p BluRay DD5.1 x264-DON

Comment for Incredibles 2 2018 1080p BluRay REMUX AVC DTS-HD MA 7.1-EPSiLON

Only members can create comment.