NetHD.org

Incredibles 2 2018 1080p BluRay x264-SECTOR7

Download Incredibles 2 2018 1080p BluRay x264-SECTOR7  
Small DescriptionGia Đình Siêu Nhân 2
Basic Info
Uploaded bylouis199x (Pig) at 2018-11-02 09:09:45
Action
Social
  • 3
Hot Meter
  • Views: 1294
  • Hits: 240
  • Snatched: 209 x time(s)
  • Last Action: 2019-03-19 23:59:22
Peers12 Seeder | 0 Leecher


Incredibles 2 2018 1080p BluRay x264-SECTOR7  screenshots
Incredibles 2 2018 1080p BluRay x264-SECTOR7  screenshots
Incredibles 2 2018 1080p BluRay x264-SECTOR7  screenshots
Incredibles 2 2018 1080p BluRay x264-SECTOR7  screenshots

Quote
General
Complete name : /home/psb27301/files/incredibles.2.2018.1080p.bluray.x264-sector7.mkv
Format : Matroska
Format version : Version 2
File size : 5.47 GiB
Duration : 1h 57mn
Overall bit rate : 6 640 Kbps
Writing application : mkvmerge v6.6.0 ('The Edge Of The In Between') built on Dec 1 2013 17:55:00
Writing library : libebml v1.3.0 + libmatroska v1.4.1

Video
ID : 1
Format : AVC
Format/Info : Advanced Video Codec
Format profile : High@L4.1
Format settings, CABAC : Yes
Format settings, ReFrames : 5 frames
Codec ID : V_MPEG4/ISO/AVC
Duration : 1h 57mn
Bit rate : 5 129 Kbps
Width : 1 920 pixels
Height : 808 pixels
Display aspect ratio : 2.40:1
Frame rate mode : Constant
Frame rate : 23.976 fps
Color space : YUV
Chroma subsampling : 4:2:0
Bit depth : 8 bits
Scan type : Progressive
Bits/(Pixel*Frame) : 0.138
Stream size : 4.11 GiB (75%)
Writing library : x264 core 157 r2935 545de2f
Encoding settings : cabac=1 / ref=5 / deblock=1:0:0 / analyse=0x3:0x113 / me=umh / subme=8 / psy=1 / psy_rd=1.00:0.00 / mixed_ref=1 / me_range=16 / chroma_me=1 / trellis=1 / 8x8dct=1 / cqm=0 / deadzone=21,11 / fast_pskip=1 / chroma_qp_offset=-2 / threads=12 / lookahead_threads=2 / sliced_threads=0 / nr=0 / decimate=1 / interlaced=0 / bluray_compat=0 / constrained_intra=0 / bframes=3 / b_pyramid=2 / b_adapt=2 / b_bias=0 / direct=3 / weightb=1 / open_gop=0 / weightp=2 / keyint=250 / keyint_min=23 / scenecut=40 / intra_refresh=0 / rc_lookahead=50 / rc=2pass / mbtree=1 / bitrate=5129 / ratetol=1.0 / qcomp=0.60 / qpmin=0 / qpmax=69 / qpstep=4 / cplxblur=20.0 / qblur=0.5 / ip_ratio=1.40 / aq=1:1.00
Language : English
Default : Yes
Forced : No

Audio
ID : 2
Format : DTS
Format/Info : Digital Theater Systems
Mode : 16
Format settings, Endianness : Big
Codec ID : A_DTS
Duration : 1h 57mn
Bit rate mode : Constant
Bit rate : 1 509 Kbps
Channel(s) : 6 channels
Channel positions : Front: L C R, Side: L R, LFE
Sampling rate : 48.0 KHz
Bit depth : 24 bits
Compression mode : Lossy
Stream size : 1.24 GiB (23%)
Title : English
Language : English
Default : Yes
Forced : No

Menu
00:00:00.000 : en:00:00:00.000
00:03:22.327 : en:00:03:22.327
00:08:53.616 : en:00:08:53.616
00:09:36.784 : en:00:09:36.784
00:13:38.276 : en:00:13:38.276
00:15:44.735 : en:00:15:44.735
00:21:19.737 : en:00:21:19.737
00:23:28.282 : en:00:23:28.282
00:27:08.794 : en:00:27:08.794
00:28:59.571 : en:00:28:59.571
00:35:10.900 : en:00:35:10.900
00:39:07.845 : en:00:39:07.845
00:42:43.894 : en:00:42:43.894
00:43:42.411 : en:00:43:42.411
00:47:35.352 : en:00:47:35.352
00:48:53.889 : en:00:48:53.889
00:54:15.585 : en:00:54:15.585
00:56:16.039 : en:00:56:16.039
01:00:58.696 : en:01:00:58.696
01:02:01.884 : en:01:02:01.884
01:06:55.511 : en:01:06:55.511
01:09:18.237 : en:01:09:18.237
01:11:28.200 : en:01:11:28.200
01:12:37.686 : en:01:12:37.686
01:14:39.266 : en:01:14:39.266
01:18:00.968 : en:01:18:00.968
01:20:32.536 : en:01:20:32.536
01:25:01.930 : en:01:25:01.930
01:27:59.440 : en:01:27:59.440
01:31:53.925 : en:01:31:53.925
01:33:26.434 : en:01:33:26.434
01:36:25.237 : en:01:36:25.237
01:37:45.192 : en:01:37:45.192
01:43:56.897 : en:01:43:56.897
01:45:35.912 : en:01:45:35.912
01:47:30.902 : en:01:47:30.902

TitleGia dình siêu nhân 2
Year2018
Genre
Rating7.7 (187,245 votes)
PlotWhile the Parr family has accepted its collective calling as superheroes, the fact remains that their special heroism is still illegal. After they are arrested after unsuccessfully trying to stop the Underminer, their future seems bleak. However, the wealthy Deavor siblings of Devtech offer new hope with a bold project to rehabilitate the public image and legal status of Supers, with Elastigirl being assigned on point to be the shining example. Now having agreed for now to stay at home to care…
DirectorBrad Bird
CastsCraig T. Nelson,Holly Hunter,Sarah Vowell,Huck Milner,Catherine Keener…
Runtime118 min
Genres
Gia dình siêu nhân 2


Dragon Ball - Ossu! Kaette Kita Son Goku to Nakama-tachi!!2008 1280x720 [A85364B0]Girls und Panzer 2013 720p Bluray AAC x264 - [A4VF-CrazySol] Strike the Blood 2013 Complete HD [TVs] 720p x264 AACLe roi et l'oiseau 1980 1080p BluRay FLAC2 0 x264-DONSirius the Jaeger S01 720p HDTVRip AAC2.0 x264Tom and Jerry: Robin Hood and His Merry Mouse 2012 720p BluRay DTS x264-TayTO

Only members can create comment.