NetHD.org

Inside Men 2015 720p BluRay x264-ROVERS

Download Inside Men 2015 720p BluRay x264-ROVERS 
Small DescriptionLee Kang-hee is an editorialist of a influential newspaper in South Korea. With the power of the press, he makes the congressman Jang Pil-woo to one of the candidates of the next presidential election. That is the result of a secret deal between Lee and Ahn Sang-goo, a political henchman of Jang Pil-woo. But Ahn makes an almost fatal error, when he gets caught pocketing the record on the Jang's slush fund. The prosecutor Woo Jang-hoon is about to investigate and becomes absolutely determined,…
Basic Info
Uploaded byAnonymous at 2019-05-15 22:34:40
Action
Social
  • 0
Hot Meter
  • Views: 75
  • Hits: 13
  • Snatched: 8 x time(s)
  • Last Action: 2019-05-24 04:37:31
Peers3 Seeder | 0 Leecher


General
Unique ID                                : 187665739385566657901582305251811540743 (0x8D2F1B50CF89E12A88662C82AEA63F07)
Format                                   : Matroska
Format version                           : Version 4 / Version 2
File size                                : 7.65 GiB
Duration                                 : 3h 0mn
Overall bit rate                         : 6 071 Kbps
Encoded date                             : UTC 2016-06-09 15:40:45
Writing application                      : mkvmerge v8.3.0 ('Over the Horizon') 64bit
Writing library                          : libebml v1.3.1 + libmatroska v1.4.2
DURATION                                 : 02:54:00.430000000
NUMBER_OF_FRAMES                         : 2188
NUMBER_OF_BYTES                          : 72696
_STATISTICS_WRITING_APP                  : mkvmerge v8.3.0 ('Over the Horizon') 64bit
_STATISTICS_WRITING_DATE_UTC             : 2016-06-09 15:40:45
_STATISTICS_TAGS                         : BPS DURATION NUMBER_OF_FRAMES NUMBER_OF_BYTES
 
Video
ID                                       : 1
Format                                   : AVC
Format/Info                              : Advanced Video Codec
Format profile                           : High@L4.1
Format settings, CABAC                   : Yes
Format settings, ReFrames                : 5 frames
Codec ID                                 : V_MPEG4/ISO/AVC
Duration                                 : 3h 0mn
Bit rate                                 : 4 560 Kbps
Width                                    : 1 280 pixels
Height                                   : 688 pixels
Display aspect ratio                     : 1.85:1
Frame rate mode                          : Constant
Frame rate                               : 23.976 fps
Color space                              : YUV
Chroma subsampling                       : 4:2:0
Bit depth                                : 8 bits
Scan type                                : Progressive
Bits/(Pixel*Frame)                       : 0.216
Stream size                              : 5.60 GiB (73%)
Writing library                          : x264 core 148 r2692 64f4e24
Encoding settings                        : cabac=1 / ref=5 / deblock=1:0:0 / analyse=0x3:0x133 / me=umh / subme=7 / psy=1 / psy_rd=1.00:0.00 / mixed_ref=1 / me_range=16 / chroma_me=1 / trellis=1 / 8x8dct=1 / cqm=0 / deadzone=21,11 / fast_pskip=0 / chroma_qp_offset=-2 / threads=12 / lookahead_threads=2 / sliced_threads=0 / nr=0 / decimate=1 / interlaced=0 / bluray_compat=0 / constrained_intra=0 / bframes=3 / b_pyramid=2 / b_adapt=1 / b_bias=0 / direct=1 / weightb=1 / open_gop=0 / weightp=2 / keyint=250 / keyint_min=23 / scenecut=40 / intra_refresh=0 / rc_lookahead=40 / rc=2pass / mbtree=1 / bitrate=4560 / ratetol=1.0 / qcomp=0.60 / qpmin=0 / qpmax=69 / qpstep=4 / cplxblur=20.0 / qblur=0.5 / ip_ratio=1.40 / aq=1:1.00
Language                                 : Korean
Default                                  : Yes
Forced                                   : No
DURATION                                 : 03:00:29.503000000
NUMBER_OF_FRAMES                         : 259648
NUMBER_OF_BYTES                          : 6171962586
_STATISTICS_WRITING_APP                  : mkvmerge v8.3.0 ('Over the Horizon') 64bit
_STATISTICS_WRITING_DATE_UTC             : 2016-06-09 15:40:45
_STATISTICS_TAGS                         : BPS DURATION NUMBER_OF_FRAMES NUMBER_OF_BYTES
 
Audio
ID                                       : 2
Format                                   : DTS
Format/Info                              : Digital Theater Systems
Mode                                     : 16
Format settings, Endianness              : Big
Codec ID                                 : A_DTS
Duration                                 : 3h 0mn
Bit rate mode                            : Constant
Bit rate                                 : 1 509 Kbps
Channel(s)                               : 6 channels
Channel positions                        : Front: L C R, Side: L R, LFE
Sampling rate                            : 48.0 KHz
Bit depth                                : 24 bits
Compression mode                         : Lossy
Stream size                              : 1.90 GiB (25%)
Language                                 : Korean
Default                                  : Yes
Forced                                   : No

Inside Men 2015 720p BluRay x264-ROVERS screenshots Inside Men 2015 720p BluRay x264-ROVERS screenshots Inside Men 2015 720p BluRay x264-ROVERS screenshots
TitleNae-bu-ja-deul
Year2015
Genre
Rating7 (2,218 votes)
PlotLee Kang-hee is an editorialist of a influential newspaper in South Korea. With the power of the press, he makes the congressman Jang Pil-woo to one of the candidates of the next presidential election. That is the result of a secret deal between Lee and Ahn Sang-goo, a political henchman of Jang Pil-woo. But Ahn makes an almost fatal error, when he gets caught pocketing the record on the Jang's slush fund. The prosecutor Woo Jang-hoon is about to investigate and becomes absolutely determined,…
DirectorMin-ho Woo
CastsByung-Hun Lee,Seung-woo Cho,Yun-shik Baek,Kyeong-yeong Lee,Seong-woo Bae…
Runtime130 min
Genres
Nae-bu-ja-deul


Allegiant 2016 1080p BluRay DTS x264-HRJustice, My Foot! 1992 720p BluRay DD2.0 x264-WiKiPlanet of the Apes 1968 1080p BluRay DTS x264-SkazhutinSwiss Army Man 2016 1080p Blu-ray AVC TrueHD Atmos 7.1-NetBDFlukt Aka Escape 2012 720p BluRay DTS x264-PublicHDWill Penny 1967 1080p AMZN WEB-DL DD2.0 x264-monkee

Only members can create comment.