NetHD.org

Into the Badlands S01 1080p WEB-DL DD5.1 H.264-NTb

Download Into the Badlands S01 1080p WEB-DL DD5.1 H.264-NTb 
Small DescriptionA mighty warrior and a young boy search for enlightenment in a ruthless territory controlled by feudal barons.
Basic Info
Uploaded byhuercha (Crazy User) at 2015-12-25 21:38:44
Action
Social
  • 0
Hot Meter
  • Views: 717
  • Hits: 71
  • Snatched: 21 x time(s)
  • Last Action: 2019-03-18 14:08:28
Peers0 Seeder | 0 Leecher


Video
ID                                       : 1
Format                                   : AVC
Format/Info                              : Advanced Video Codec
Format profile                           : High@L4
Format settings, CABAC                   : Yes
Format settings, ReFrames                : 4 frames
Codec ID                                 : V_MPEG4/ISO/AVC
Duration                                 : 44mn 0s
Bit rate                                 : 4 993 Kbps
Width                                    : 1 916 pixels
Height                                   : 1 076 pixels
Display aspect ratio                     : 16:9
Frame rate mode                          : Constant
Frame rate                               : 23.976 fps
Color space                              : YUV
Chroma subsampling                       : 4:2:0
Bit depth                                : 8 bits
Scan type                                : Progressive
Bits/(Pixel*Frame)                       : 0.101
Stream size                              : 1.53 GiB (91%)
Title                                    : Into.The.Badlands.S01E01.1080p.WEB-DL.DD5.1.H264-RARBG
Language                                 : English
Default                                  : Yes
Forced                                   : No
Color range                              : Limited
Color primaries                          : BT.709
Transfer characteristics                 : BT.709
Matrix coefficients                      : BT.709

Audio
ID                                       : 2
Format                                   : AC-3
Format/Info                              : Audio Coding 3
Mode extension                           : CM (complete main)
Format settings, Endianness              : Big
Codec ID                                 : A_AC3
Duration                                 : 44mn 0s
Bit rate mode                            : Constant
Bit rate                                 : 384 Kbps
Channel(s)                               : 6 channels
Channel positions                        : Front: L C R, Side: L R, LFE
Sampling rate                            : 48.0 KHz
Compression mode                         : Lossy
Stream size                              : 121 MiB (7%)
Title                                    : Into.The.Badlands.S01E01.1080p.WEB-DL.DD5.1.H264-RARBG
Language                                 : English
Default                                  : Yes
Forced                                   : No

Text
ID                                       : 3
Format                                   : UTF-8
Codec ID                                 : S_TEXT/UTF8
Codec ID/Info                            : UTF-8 Plain Text
Language                                 : English
Default                                  : Yes
Forced                                   : No

Into the Badlands S01 1080p WEB-DL DD5.1 H.264-NTb screenshotsInto the Badlands S01 1080p WEB-DL DD5.1 H.264-NTb screenshotsInto the Badlands S01 1080p WEB-DL DD5.1 H.264-NTb screenshotsInto the Badlands S01 1080p WEB-DL DD5.1 H.264-NTb screenshotsInto the Badlands S01 1080p WEB-DL DD5.1 H.264-NTb screenshotsInto the Badlands S01 1080p WEB-DL DD5.1 H.264-NTb screenshots
TitleInto the Badlands
Year2015
Genre
Rating8.1 (32,961 votes)
PlotRegent Sunny, a highly-skilled fighter and the deadliest "Head Clipper" for Baron Quinn battles the Nomads to rescue a mysterious boy named M.K. who harbors a dark secret about his past. But when he brings him back to The Fort to train as a "Colt", a Clipper-in-training, things quickly get out of hand with another trainee. When first blood is drawn, M.K. loses control of himself as if something takes over his body, making the boy valuable to an opposing baron, The Widow. Meanwhile, Sunny…
Directorn/A
CastsDaniel Wu,Orla Brady,Emily Beecham,Aramis Knight,Ally Ioannides…
Runtime42 min
Genres
Into the Badlands


Athena Goddess Of War 2011 ViE 1080p HDTV AAC x264-VNLTFalling Skies S03 Season 3 COMPLETE 720p HDTV x264-PublicHDLittle House on the Prairie S06 ViE SDTV AAC x264-VTC&HTVBeauty At War 2013 HD720p - FULL 30 tậpThe Legend of the Condor Heroes 2003 DVDRip x264 AAC COMPLETESurplus Princess tvN 2014 10/10 HD720p VNLT

Only members can create comment.