Isle of Dogs 2018 1080p AMZN WEBRip DDP5.1 x264-SiGMA

Download Isle of Dogs 2018 1080p AMZN WEBRip DDP5.1 x264-SiGMA 
Small DescriptionĐảo Của Những Chú Chó 2018 | Phụ Đề Việt @JadViE Studio
Basic Info
Uploaded byJadViE (Internal Audio Team of NetHD) at 2018-07-03 11:31:34
Action
Social
  • 14
Hot Meter
  • Views: 1212
  • Hits: 248
  • Snatched: 204 x time(s)
  • Last Action: 2018-11-18 13:38:55
Peers9 Seeder | 0 Leecher
ĐẢO CỦA NHỮNG CHÚ CHÓ 2018


Isle of Dogs 2018 1080p AMZN WEBRip DDP5.1 x264-SiGMA screenshots


Quote
Ở thế giới xã hội giả tưởng đặt bối cảnh tại nước Nhật, đã xảy ra nạn bùng nổ dân số... chó, và những chú chó vô gia cư bị tống lên một hòn đảo toàn rác thải, cách ly hoàn toàn với loài người.
Câu chuyện của bộ phim mở ra khi cậu bé Atari Kobayashi 12 tuổi vô tình lạc mất chú chó cưng tên SPOTS và cậu bắt đầu cuộc hành trình đi tìm kiếm người bạn thân này của mình...

Khởi chiếu: 01/06/2018 tại Việt Nam
Thể loại: Comedy, Adventure, Animation
Đạo diễn: Wes Anderson


Complete name               : Isle.of.Dogs.2018.1080p.AMZN.WEB-DL.DD+5.1.H.264-SiGMA.mkv
File size                   : 3.71 GiB
Duration                    : 1 h 41 min
Overall bit rate            : 5 258 kb/s
Encoded date                : UTC 2018-07-03 04:25:24
Writing application         : mkvmerge v24.0.0 ('Beyond The Pale') 64-bit
Writing library             : libebml v1.3.6 + libmatroska v1.4.9

Video
ID                          : 1
Format                      : AVC
Format/Info                 : Advanced Video Codec
Format profile              : High@L4
Format settings             : CABAC / 4 Ref Frames
Format settings, CABAC      : Yes
Format settings, ReFrames   : 4 frames
Codec ID                    : V_MPEG4/ISO/AVC
Duration                    : 1 h 41 min
Bit rate                    : 4 616 kb/s
Width                       : 1 920 pixels
Height                      : 800 pixels
Display aspect ratio        : 2.40:1
Frame rate mode             : Constant
Frame rate                  : 23.976 (24000/1001) FPS
Color space                 : YUV
Chroma subsampling          : 4:2:0
Bit depth                   : 8 bits
Scan type                   : Progressive
Bits/(Pixel*Frame)          : 0.125
Stream size                 : 3.26 GiB (88%)
Language                    : Japanese
Default                     : Yes
Forced                      : No
Color range                 : Limited
Color primaries             : BT.709
Transfer characteristics    : BT.709
Matrix coefficients         : BT.709

Audio
ID                          : 2
Format                      : E-AC-3
Format/Info                 : Enhanced Audio Coding 3
Codec ID                    : A_EAC3
Duration                    : 1 h 41 min
Bit rate mode               : Constant
Bit rate                    : 640 kb/s
Channel(s)                  : 6 channels
Channel positions           : Front: L C R, Side: L R, LFE
Sampling rate               : 48.0 kHz
Frame rate                  : 187.500 FPS (256 SPF)
Compression mode            : Lossy
Stream size                 : 463 MiB (12%)
Language                    : English
Service kind                : Complete Main
Default                     : Yes
Forced                      : No

Text #1
ID                          : 3
Format                      : UTF-8
Codec ID                    : S_TEXT/UTF8
Codec ID/Info               : UTF-8 Plain Text
Duration                    : 1 h 34 min
Bit rate                    : 71 b/s
Count of elements           : 1162
Stream size                 : 49.5 KiB (0%)
Title                       : @JadViE Studio - SystemTN
Language                    : Vietnamese
Default                     : Yes

Forced                      : No

Text #2
ID                          : 4
Format                      : UTF-8
Codec ID                    : S_TEXT/UTF8
Codec ID/Info               : UTF-8 Plain Text
Duration                    : 1 h 40 min
Bit rate                    : 57 b/s
Count of elements           : 1438
Stream size                 : 42.4 KiB (0%)
Language                    : English
Default                     : No
Forced                      : No
TitleIsle of Dogs
Year2018
Genre
Rating8 (78,621 votes)
PlotAn outbreak of dog flu has spread through the city of Megasaki, Japan, and Mayor Kobayashi has demanded all dogs to be sent to Trash Island. On the island, a young boy named Atari sets out to find his lost dog, Spots, with the help of five other dogs... with many obstacles along the way. Written by Mike202
DirectorWes Anderson
CastsBryan Cranston,Koyu Rankin,Edward Norton,Bob Balaban,Jeff Goldblum…
Runtime101 min
Genres
Isle of Dogs


Tags

Other releases

Same genre with Isle of Dogs 2018 1080p AMZN WEBRip DDP5.1 x264-SiGMA

Night Is Short, Walk on Girl 2017 1080p JPN Blu-ray AVC DTS-HD MA 5.1-CrsSRoom on the Broom 2012 1080p WEBRip AAC2.0 x264-TrollHDAladdin: The Return of Jafar 1994 Vie mHD-HDTV x264 2Audio AC3Pokemon Movie 17 The Cocoon of Destruction and Diancie 2014 ViE 1080p BluRay FLAC2.0 x264WALL·E 2008 mHD BluRay DD5.1 x264-TRiMThe Son of Bigfoot 2017 1080p BEL Blu-ray AVC DTS-HD MA 5.1-MIDDLE

Comment for Isle of Dogs 2018 1080p AMZN WEBRip DDP5.1 x264-SiGMA

Only members can create comment.