iZombie S04 1080p WEB-DL DD5.1 H.264-NTb

Download iZombie S04 1080p WEB-DL DD5.1 H.264-NTb Free
Small DescriptionLiv Moore, a medical student, gets invited in a party which turns into a macabre zombie arena. Liv wakes up from the dead and becomes a zombie. For maintaining her humanity she must eat human brains so she began working in coroner's office to access brains. Eating a brain gives her memories and traits of that person. So she helps detective Clive Babineaux to solve the murder as a psychic. Written by Awinash Singh
Basic Info
Uploaded byAnonymous at 2018-06-13 14:28:10
Action
Social
  • 0
Hot Meter
  • Views: 202
  • Hits: 14
  • Snatched: 3 x time(s)
  • Last Action: 2018-08-17 20:44:22
Peers1 Seeder | 0 Leecher
General
Unique ID                   : 186356513556579853829984238814118095597 (0x8C32F57FA632545A970D4FBDB69D2AED)
Complete name               : D:\NETHD\iZombie.S04.1080p.NF.WEB-DL.DD5.1.x264-NTb\iZombie.S04E01.Are.You.Ready.for.Some.Zombies.1080p.NF.WEB-DL.DD5.1.x264-NTb.mkv
Format                      : Matroska
Format version              : Version 4 / Version 2
File size                   : 1.80 GiB
Duration                    : 41 min 44 s
Overall bit rate mode       : Variable
Overall bit rate            : 6 168 kb/s
Encoded date                : UTC 2018-02-27 20:14:14
Writing application         : mkvmerge v10.0.0 ('To Drown In You') 64bit
Writing library             : libebml v1.3.4 + libmatroska v1.4.5

Video
ID                          : 1
Format                      : AVC
Format/Info                 : Advanced Video Codec
Format profile              : Main@L4
Format settings, CABAC      : Yes
Format settings, ReFrames   : 3 frames
Codec ID                    : V_MPEG4/ISO/AVC
Duration                    : 41 min 43 s
Bit rate mode               : Variable
Bit rate                    : 5 800 kb/s
Maximum bit rate            : 8 700 kb/s
Width                       : 1 920 pixels
Height                      : 1 080 pixels
Display aspect ratio        : 16:9
Frame rate mode             : Constant
Frame rate                  : 23.976 (24000/1001) FPS
Color space                 : YUV
Chroma subsampling          : 4:2:0
Bit depth                   : 8 bits
Scan type                   : Progressive
Bits/(Pixel*Frame)          : 0.117
Stream size                 : 1.69 GiB (94%)
Writing library             : x264 core 148 r2715 7e75228
Encoding settings           : cabac=1 / ref=3 / deblock=1:0:0 / analyse=0x1:0x111 / me=umh / subme=10 / psy=1 / psy_rd=1.00:0.00 / mixed_ref=1 / me_range=24 / chroma_me=1 / trellis=2 / 8x8dct=0 / cqm=0 / deadzone=21,11 / fast_pskip=1 / chroma_qp_offset=-2 / threads=8 / lookahead_threads=1 / sliced_threads=0 / nr=0 / decimate=1 / interlaced=0 / bluray_compat=0 / stitchable=1 / constrained_intra=0 / bframes=2 / b_pyramid=0 / b_adapt=2 / b_bias=0 / direct=3 / weightb=1 / open_gop=0 / weightp=2 / keyint=48 / keyint_min=25 / scenecut=0 / intra_refresh=0 / rc_lookahead=48 / rc=2pass / mbtree=1 / bitrate=5800 / ratetol=1.0 / qcomp=0.50 / qpmin=6 / qpmax=51 / qpstep=4 / cplxblur=20.0 / qblur=0.5 / vbv_maxrate=8700 / vbv_bufsize=11600 / nal_hrd=vbr / filler=0 / ip_ratio=1.40 / aq=1:1.00
Default                     : Yes
Forced                      : No

Audio
ID                          : 2
Format                      : AC-3
Format/Info                 : Audio Coding 3
Format settings, Endianness : Big
Codec ID                    : A_AC3
Duration                    : 41 min 44 s
Bit rate mode               : Constant
Bit rate                    : 384 kb/s
Channel(s)                  : 6 channels
Channel positions           : Front: L C R, Side: L R, LFE
Sampling rate               : 48.0 kHz
Frame rate                  : 31.250 FPS (1536 spf)
Bit depth                   : 16 bits
Compression mode            : Lossy
Stream size                 : 115 MiB (6%)
Language                    : English
Service kind                : Complete Main
Default                     : Yes
Forced                      : No

Text #1
ID                          : 3
Format                      : UTF-8
Codec ID                    : S_TEXT/UTF8
Codec ID/Info               : UTF-8 Plain Text
Duration                    : 41 min 5 s
Bit rate                    : 79 b/s
Count of elements           : 687
Stream size                 : 24.0 KiB (0%)
Language                    : English
Default                     : No
Forced                      : No

Text #2
ID                          : 4
Format                      : UTF-8
Codec ID                    : S_TEXT/UTF8
Codec ID/Info               : UTF-8 Plain Text
Duration                    : 41 min 5 s
Bit rate                    : 84 b/s
Count of elements           : 732
Stream size                 : 25.4 KiB (0%)
Title                       : SDH
Language                    : English
Default                     : No
Forced                      : No

iZombie S04 1080p WEB-DL DD5.1 H.264-NTb screenshots iZombie S04 1080p WEB-DL DD5.1 H.264-NTb screenshots iZombie S04 1080p WEB-DL DD5.1 H.264-NTb screenshots
TitleiZombie
Year2015
GenreComedy / Crime / Drama / Horror
Rating7.9 (50,342 votes)
PlotLiv Moore, a medical student, gets invited in a party which turns into a macabre zombie arena. Liv wakes up from the dead and becomes a zombie. For maintaining her humanity she must eat human brains so she began working in coroner's office to access brains. Eating a brain gives her memories and traits of that person. So she helps detective Clive Babineaux to solve the murder as a psychic. Written by Awinash Singh
Directorn/A
CastsRose McIver / Malcolm Goodwin / Rahul Kohli / Robert Buckley / David Anders…
Runtime42 min
GenresComedy / Crime / Drama / Horror
iZombie


Tags

Other releases

Same genre with iZombie S04 1080p WEB-DL DD5.1 H.264-NTb

Lost Girl S03 720p BluRay DD5.1 x264-NTbBitter Harvest 2017 1080p GER Blu-ray AVC DTS-HD MA 5.1-CLASHSong to Song 2017 mHD BluRay DD5.1 x264-TRiM American Violet 2008 720p BluRay FLAC 2.0-EbPSpark 1998 m720p HDTV AAC2.0 H.264-NTVCall Girl 2012 720p BluRay DD5.1 x264-CtrlHD

Comment for iZombie S04 1080p WEB-DL DD5.1 H.264-NTb

Only members can create comment.