NetHD.org

Journey to the Center of the Earth 2008 / Journey 2: The Mysterious Island 2012

Download Journey to the Center of the Earth 2008 / Journey 2: The Mysterious Island 2012 
Small DescriptionVietSub Mux sẵn | Dành cho những Fan của Jules Verne. Một trong những truyện khoa học viễn tưởng được chuyển thể thành phim của ông.
Basic Info
Uploaded byAnonymous at 2019-07-11 16:53:44
Action
Hot Meter
  • Views: 300
  • Hits: 28
  • Snatched: 21 x time(s)
  • Last Action: 2019-11-11 14:52:57
Peers0 Seeder | 0 Leecher



Journey to the Center of the Earth 2008

Journey 2: The Mysterious Island 2012


Quote

General
Complete name               : Journey.2.The.Mysterious.Island.2012.1080p.BluRay.x264.DD5.1.mkv
Format                      : Matroska
Format version              : Version 4 / Version 2
File size                   : 5.35 GiB
Duration                    : 1h 34mn
Overall bit rate            : 8 131 Kbps
Encoded date                : UTC 2019-07-11 04:47:17

Video
ID                          : 1
Format                      : AVC
Format/Info                 : Advanced Video Codec
Format profile              : High@L4.1
Format settings, CABAC      : Yes
Format settings, ReFrames   : 4 frames
Codec ID                    : V_MPEG4/ISO/AVC
Duration                    : 1h 34mn
Bit rate                    : 7 494 Kbps
Width                       : 1 920 pixels
Height                      : 1 080 pixels
Display aspect ratio        : 16:9
Frame rate mode             : Constant
Frame rate                  : 23.976 fps
Color space                 : YUV
Chroma subsampling          : 4:2:0
Bit depth                   : 8 bits
Scan type                   : Progressive
Bits/(Pixel*Frame)          : 0.151
Stream size                 : 4.82 GiB (90%)
Writing library             : x264 core 125 r2200 999b753
Language                    : English
Default                     : Yes
Forced                      : Yes

Audio
ID                          : 3
Format                      : AC-3
Format/Info                 : Audio Coding 3
Mode extension              : CM (complete main)
Format settings, Endianness : Big
Codec ID                    : A_AC3
Duration                    : 1h 34mn
Bit rate mode               : Constant
Bit rate                    : 640 Kbps
Channel(s)                  : 6 channels
Channel positions           : Front: L C R, Side: L R, LFE
Sampling rate               : 48.0 KHz
Compression mode            : Lossy
Stream size                 : 431 MiB (8%)
Language                    : English
Default                     : Yes
Forced                      : No

Text #1
ID                          : 2
Format                      : UTF-8
Codec ID                    : S_TEXT/UTF8
Codec ID/Info               : UTF-8 Plain Text
Title                       : Vietnamese Sub
Language                    : Vietnamese
Default                     : Yes
Forced                      : Yes

Text #2
ID                          : 4
Format                      : UTF-8
Codec ID                    : S_TEXT/UTF8
Codec ID/Info               : UTF-8 Plain Text
Title                       : English Sub
Language                    : English
Default                     : No
Forced                      : Yes

General
Complete name               : Journey.to.the.Center.of.the.Earth.2008.1080p.BluRay.x264.DD5.1.mkv
Format                      : Matroska
Format version              : Version 4 / Version 2
File size                   : 7.95 GiB
Duration                    : 1h 34mn
Overall bit rate            : 12.1 Mbps
Movie name                  : Journey.to.the.Center.of.the.Earth.2008.1080p.BluRay.x264.DD5.1-FGT
Encoded date                : UTC 2019-07-11 04:28:36
Writing application         : mkvmerge v9.8.0 ('Kuglblids') 64bit
Writing library             : libebml v1.3.4 + libmatroska v1.4.5
Attachements                : cover_land.jpg / small_cover.jpg / small_cover_land.jpg / cover.jpg
DURATION                    : 01:24:56.291000000
NUMBER_OF_FRAMES            : 1023
NUMBER_OF_BYTES             : 34513

Video
ID                          : 2
Format                      : AVC
Format/Info                 : Advanced Video Codec
Format profile              : High@L4.1
Format settings, CABAC      : Yes
Format settings, ReFrames   : 5 frames
Codec ID                    : V_MPEG4/ISO/AVC
Duration                    : 1h 34mn
Bit rate                    : 11.6 Mbps
Width                       : 1 920 pixels
Height                      : 1 080 pixels
Display aspect ratio        : 16:9
Frame rate mode             : Constant
Frame rate                  : 23.976 fps
Color space                 : YUV
Chroma subsampling          : 4:2:0
Bit depth                   : 8 bits
Scan type                   : Progressive
Bits/(Pixel*Frame)          : 0.234
Stream size                 : 7.37 GiB (93%)
Writing library             : x264 core 65 r999 cc51047
Language                    : English
Default                     : Yes
Forced                      : No

Audio
ID                          : 3
Format                      : AC-3
Format/Info                 : Audio Coding 3
Mode extension              : CM (complete main)
Format settings, Endianness : Big
Codec ID                    : A_AC3
Duration                    : 1h 34mn
Bit rate mode               : Constant
Bit rate                    : 640 Kbps
Channel(s)                  : 6 channels
Channel positions           : Front: L C R, Side: L R, LFE
Sampling rate               : 48.0 KHz
Compression mode            : Lossy
Stream size                 : 431 MiB (5%)
Language                    : English
Default                     : Yes
Forced                      : No

Text #1
ID                          : 1
Format                      : UTF-8
Codec ID                    : S_TEXT/UTF8
Codec ID/Info               : UTF-8 Plain Text
Title                       : Vietnamese Sub
Language                    : Vietnamese
Default                     : Yes
Forced                      : Yes

Text #2
ID                          : 4
Format                      : UTF-8
Codec ID                    : S_TEXT/UTF8
Codec ID/Info               : UTF-8 Plain Text
Title                       : English Sub
Language                    : English
Default                     : No
Forced                      : Yes


-Screenshots-


Journey to the Center of the Earth 2008 / Journey 2: The Mysterious Island 2012 screenshots Journey to the Center of the Earth 2008 / Journey 2: The Mysterious Island 2012 screenshots
Journey to the Center of the Earth 2008 / Journey 2: The Mysterious Island 2012 screenshots Journey to the Center of the Earth 2008 / Journey 2: The Mysterious Island 2012 screenshots
Journey to the Center of the Earth 2008 / Journey 2: The Mysterious Island 2012 screenshots Journey to the Center of the Earth 2008 / Journey 2: The Mysterious Island 2012 screenshots
Journey to the Center of the Earth 2008 / Journey 2: The Mysterious Island 2012 screenshots Journey to the Center of the Earth 2008 / Journey 2: The Mysterious Island 2012 screenshots
Journey to the Center of the Earth 2008 / Journey 2: The Mysterious Island 2012 screenshots Journey to the Center of the Earth 2008 / Journey 2: The Mysterious Island 2012 screenshots
Journey to the Center of the Earth 2008 / Journey 2: The Mysterious Island 2012 screenshots Journey to the Center of the Earth 2008 / Journey 2: The Mysterious Island 2012 screenshots
Journey to the Center of the Earth 2008 / Journey 2: The Mysterious Island 2012 screenshots Journey to the Center of the Earth 2008 / Journey 2: The Mysterious Island 2012 screenshots
Journey to the Center of the Earth 2008 / Journey 2: The Mysterious Island 2012 screenshots Journey to the Center of the Earth 2008 / Journey 2: The Mysterious Island 2012 screenshots
Journey to the Center of the Earth 2008 / Journey 2: The Mysterious Island 2012 screenshots
Journey to the Center of the Earth 2008 / Journey 2: The Mysterious Island 2012 screenshots Journey to the Center of the Earth 2008 / Journey 2: The Mysterious Island 2012 screenshots
Journey to the Center of the Earth 2008 / Journey 2: The Mysterious Island 2012 screenshots Journey to the Center of the Earth 2008 / Journey 2: The Mysterious Island 2012 screenshots
Journey to the Center of the Earth 2008 / Journey 2: The Mysterious Island 2012 screenshots Journey to the Center of the Earth 2008 / Journey 2: The Mysterious Island 2012 screenshots
Journey to the Center of the Earth 2008 / Journey 2: The Mysterious Island 2012 screenshots Journey to the Center of the Earth 2008 / Journey 2: The Mysterious Island 2012 screenshots
Journey to the Center of the Earth 2008 / Journey 2: The Mysterious Island 2012 screenshots Journey to the Center of the Earth 2008 / Journey 2: The Mysterious Island 2012 screenshots
Journey to the Center of the Earth 2008 / Journey 2: The Mysterious Island 2012 screenshots
Journey to the Center of the Earth 2008 / Journey 2: The Mysterious Island 2012 screenshots Journey to the Center of the Earth 2008 / Journey 2: The Mysterious Island 2012 screenshots
Journey to the Center of the Earth 2008 / Journey 2: The Mysterious Island 2012 screenshots



The Da Vinci Code 2006 Extended Cut Hybrid Repack 720p BluRay DTS x264-VietHDIp Man 2008 ViE 1080p BluRay DTS x264-ORiGENRobin-B-Hood 2006 1080p Blu-ray Remux AVC DTS-HD MA 5.1-MegamindLkRequiem for a Gringo 1968 mHD BluRay DD5.1 x264-TRiMKaizoku Sentai Gokaiger vs. Space Sheriff Gavan: The Movie 2012 720p BluRay DD5.1 x264-TayTOThe Guillotines 2012 720p ViE BluRay DD5.1 x264-TayTO

Only members can create comment.