Krypton S01E00 PROPER 720p HDTV x264-W4F

Download Krypton S01E00 PROPER 720p HDTV x264-W4F 
Small DescriptionSet two generations before the destruction of the legendary Man of Steel's home planet, KRYPTON follows Superman's grandfather - whose House of El was ostracized and shamed - as he fights to redeem his family's honor and save his beloved world from chaos.
Basic Info
Uploaded bydpc (Uploader) at 2018-03-23 10:30:00
Action
Social
  • 0
Hot Meter
  • Views: 422
  • Hits: 13
  • Snatched: 0 x time(s)
  • Last Action: 2018-07-08 13:10:32
Peers0 Seeder | 0 Leecher
Krypton S01E00 PROPER 720p HDTV x264-W4F screenshots


"Krypton" là tên series truyền hình tham vọng của Syfy nhằm khắc hoạ cuộc chiến 200 năm trước khi Superman ra đời.
Theo chân hai thế hệ trước khi hành tinh quê hương của Superman bị tiêu diệt, Krypton xoay quanh Seg-El (Cameron Cuffe), ông của siêu anh hùng Man of Steel huyền thoại — người thuộc Gia tộc El bị đày ải và bị sỉ nhục. Khi nền lãnh đạo của Krypton bị xáo trộn, Seg-El tình cờ gặp một người du hành thời gian của Trái Đất tên Adam Strange (Shaun Sipos), hắn nói rằng ông có khả năng cứu được thế giới thân yêu của mình khỏi hỗn loạn. Trong quá trình chiến đấu để phục dựng lại gia tộc và bảo vệ người thân của mình, Seg đối mặt với quyết định sống còn – cứu hành tinh này, hay để nó bị diệt vong vì sự ra đời của cháu trai ông.



Krypton S01E00 PROPER 720p HDTV x264-W4F screenshots


Quote
General
Unique ID                   : 249047381383210341449029752883124955380 (0xBB5CC7EB88BB6E5791D616D57938E8F4)
Complete name               : D:\Downloads\Phim\Krypton.S01.720p.HDTV.x264-Scene\Krypton.S01E00.The.Making.of.a.Legend.PROPER.720p.HDTV.x264-W4F.mkv
Format                      : Matroska
Format version              : Version 4 / Version 2
File size                   : 552 MiB
Duration                    : 21 min 32 s
Overall bit rate            : 3 585 kb/s
Encoded date                : UTC 2018-03-22 03:37:46
Writing application         : mkvmerge v9.7.1 ('Pandemonium') 64bit
Writing library             : libebml v1.3.4 + libmatroska v1.4.5

Video
ID                          : 1
Format                      : AVC
Format/Info                 : Advanced Video Codec
Format profile              : High@L4.1
Format settings, CABAC      : Yes
Format settings, ReFrames   : 5 frames
Codec ID                    : V_MPEG4/ISO/AVC
Duration                    : 21 min 31 s
Bit rate                    : 3 199 kb/s
Width                       : 1 280 pixels
Height                      : 720 pixels
Display aspect ratio        : 16:9
Frame rate mode             : Constant
Frame rate                  : 23.976 (24000/1001) FPS
Color space                 : YUV
Chroma subsampling          : 4:2:0
Bit depth                   : 8 bits
Scan type                   : Progressive
Bits/(Pixel*Frame)          : 0.145
Stream size                 : 493 MiB (89%)
Writing library             : x264 core 155 r2901 7d0ff22
Encoding settings           : cabac=1 / ref=5 / deblock=1:0:0 / analyse=0x3:0x113 / me=hex / subme=8 / psy=1 / psy_rd=1.00:0.00 / mixed_ref=1 / me_range=16 / chroma_me=1 / trellis=2 / 8x8dct=1 / cqm=0 / deadzone=21,11 / fast_pskip=1 / chroma_qp_offset=-2 / threads=12 / lookahead_threads=2 / sliced_threads=0 / nr=0 / decimate=1 / interlaced=0 / bluray_compat=0 / constrained_intra=0 / bframes=3 / b_pyramid=2 / b_adapt=1 / b_bias=0 / direct=3 / weightb=1 / open_gop=0 / weightp=2 / keyint=250 / keyint_min=23 / scenecut=40 / intra_refresh=0 / rc_lookahead=50 / rc=crf / mbtree=1 / crf=20.0 / qcomp=0.60 / qpmin=0 / qpmax=69 / qpstep=4 / ip_ratio=1.40 / aq=1:1.00
Default                     : Yes
Forced                      : No

Audio
ID                          : 2
Format                      : AC-3
Format/Info                 : Audio Coding 3
Mode extension              : CM (complete main)
Format settings, Endianness : Big
Codec ID                    : A_AC3
Duration                    : 21 min 32 s
Bit rate mode               : Constant
Bit rate                    : 384 kb/s
Channel(s)                  : 6 channels
Channel positions           : Front: L C R, Side: L R, LFE
Sampling rate               : 48.0 kHz
Frame rate                  : 31.250 FPS (1536 spf)
Bit depth                   : 16 bits
Compression mode            : Lossy
Stream size                 : 59.1 MiB (11%)
Language                    : English
Default                     : Yes
Forced                      : No

Text
ID                          : 3
Format                      : UTF-8
Codec ID                    : S_TEXT/UTF8
Codec ID/Info               : UTF-8 Plain Text
Duration                    : 21 min 28 s
Bit rate                    : 185 b/s
Count of elements           : 568
Stream size                 : 29.2 KiB (0%)
Language                    : English
Default                     : No
Forced                      : No




Krypton S01E00 PROPER 720p HDTV x264-W4F screenshots


Krypton S01E00 PROPER 720p HDTV x264-W4F screenshots Krypton S01E00 PROPER 720p HDTV x264-W4F screenshots Krypton S01E00 PROPER 720p HDTV x264-W4F screenshots Krypton S01E00 PROPER 720p HDTV x264-W4F screenshots



Krypton S01E00 PROPER 720p HDTV x264-W4F screenshots



TitleKrypton
Year2018
Genre
Rating7.1 (9,497 votes)
PlotSet two generations before the destruction of the legendary Man of Steel's home planet, KRYPTON follows Superman's grandfather - whose House of El was ostracized and shamed - as he fights to redeem his family's honor and save his beloved world from chaos. Written by ahmetkozan
Directorn/A
CastsCameron Cuffe,Georgina Campbell,Shaun Sipos,Ann Ogbomo,Aaron Pierre…
Runtime45 min
Genres
Krypton


Tags

Other releases

Same genre with Krypton S01E00 PROPER 720p HDTV x264-W4F

How I Met Your Mother S03 720p HDTV DD5.1 x264-MMIBitten S03E01 720p HDTV x264-KILLERSChicago Med S01E16 720p HDTV x264-FLEETTrust S01 720p AMZN WEB-DL DDP5.1 H.264-NTbRevenge S01 720p WEB-DL DD5.1 H.264-HDBitsThe Women of Our Home 2011 720p HDTV x264 (125 Tập) (Lồng Tiếng)

Comment for Krypton S01E00 PROPER 720p HDTV x264-W4F

Only members can create comment.