Krypton S01E03 720p AMZN WEB-DL DD5.1 H.264-SiGMA

Download Krypton S01E03 720p AMZN WEB-DL DD5.1 H.264-SiGMA 
Small DescriptionSet two generations before the destruction of the legendary Man of Steel's home planet, KRYPTON follows Superman's grandfather - whose House of El was ostracized and shamed - as he fights to redeem his family's honor and save his beloved world from chaos.
Basic Info
Uploaded bydpc (Uploader) at 2018-04-07 17:00:16
Action
Social
  • 0
Hot Meter
  • Views: 433
  • Hits: 11
  • Snatched: 0 x time(s)
  • Last Action: 2018-06-07 10:32:11
Peers0 Seeder | 0 Leecher
Krypton S01E03 720p AMZN WEB-DL DD5.1 H.264-SiGMA screenshots


"Krypton" là tên series truyền hình tham vọng của Syfy nhằm khắc hoạ cuộc chiến 200 năm trước khi Superman ra đời.
Theo chân hai thế hệ trước khi hành tinh quê hương của Superman bị tiêu diệt, Krypton xoay quanh Seg-El (Cameron Cuffe), ông của siêu anh hùng Man of Steel huyền thoại — người thuộc Gia tộc El bị đày ải và bị sỉ nhục. Khi nền lãnh đạo của Krypton bị xáo trộn, Seg-El tình cờ gặp một người du hành thời gian của Trái Đất tên Adam Strange (Shaun Sipos), hắn nói rằng ông có khả năng cứu được thế giới thân yêu của mình khỏi hỗn loạn. Trong quá trình chiến đấu để phục dựng lại gia tộc và bảo vệ người thân của mình, Seg đối mặt với quyết định sống còn – cứu hành tinh này, hay để nó bị diệt vong vì sự ra đời của cháu trai ông.



Krypton S01E03 720p AMZN WEB-DL DD5.1 H.264-SiGMA screenshots


Quote
General
Unique ID                   : 227159244689128195052443427145878823509 (0xAAE54776510C28B73B93CD42460F6255)
Complete name               : D:\Downloads\Phim\Krypton.S01.720p.AMZN.WEB-DL.DD+5.1.H264-SiGMA\Krypton.S01E03.The.Rankless.Initiative.720p.AMZN.WEB-DL.DD+5.1.H264-SiGMA.mkv
Format                      : Matroska
Format version              : Version 4 / Version 2
File size                   : 1 009 MiB
Duration                    : 42 min 8 s
Overall bit rate mode       : Variable
Overall bit rate            : 3 345 kb/s
Encoded date                : UTC 2018-04-05 07:10:18
Writing application         : mkvmerge v8.8.0 ('Wind at my back') 64bit
Writing library             : libebml v1.3.3 + libmatroska v1.4.4

Video
ID                          : 1
Format                      : AVC
Format/Info                 : Advanced Video Codec
Format profile              : High@L3.1
Format settings, CABAC      : Yes
Format settings, ReFrames   : 5 frames
Codec ID                    : V_MPEG4/ISO/AVC
Duration                    : 42 min 8 s
Bit rate mode               : Variable
Bit rate                    : 2 703 kb/s
Maximum bit rate            : 4 500 kb/s
Width                       : 1 280 pixels
Height                      : 720 pixels
Display aspect ratio        : 16:9
Frame rate mode             : Constant
Frame rate                  : 23.976 (24000/1001) FPS
Color space                 : YUV
Chroma subsampling          : 4:2:0
Bit depth                   : 8 bits
Scan type                   : Progressive
Bits/(Pixel*Frame)          : 0.122
Stream size                 : 815 MiB (81%)
Default                     : Yes
Forced                      : No
Color range                 : Limited
Color primaries             : BT.709
Transfer characteristics    : BT.709
Matrix coefficients         : BT.709

Audio
ID                          : 2
Format                      : E-AC-3
Format/Info                 : Enhanced Audio Coding 3
Format settings, Endianness : Big
Codec ID                    : A_EAC3
Duration                    : 42 min 8 s
Bit rate mode               : Constant
Bit rate                    : 640 kb/s
Channel(s)                  : 6 channels
Channel positions           : Front: L C R, Side: L R, LFE
Sampling rate               : 48.0 kHz
Frame rate                  : 187.500 FPS (256 spf)
Compression mode            : Lossy
Stream size                 : 193 MiB (19%)
Language                    : English
Default                     : Yes
Forced                      : No

Text
ID                          : 3
Format                      : UTF-8
Codec ID                    : S_TEXT/UTF8
Codec ID/Info               : UTF-8 Plain Text
Duration                    : 41 min 40 s
Bit rate                    : 77 b/s
Count of elements           : 924
Stream size                 : 23.6 KiB (0%)
Language                    : English
Default                     : No
Forced                      : No




Krypton S01E03 720p AMZN WEB-DL DD5.1 H.264-SiGMA screenshots


Krypton S01E03 720p AMZN WEB-DL DD5.1 H.264-SiGMA screenshots Krypton S01E03 720p AMZN WEB-DL DD5.1 H.264-SiGMA screenshots Krypton S01E03 720p AMZN WEB-DL DD5.1 H.264-SiGMA screenshots Krypton S01E03 720p AMZN WEB-DL DD5.1 H.264-SiGMA screenshots



Krypton S01E03 720p AMZN WEB-DL DD5.1 H.264-SiGMA screenshots



TitleKrypton
Year2018
Genre
Rating7.1 (9,497 votes)
PlotSet two generations before the destruction of the legendary Man of Steel's home planet, KRYPTON follows Superman's grandfather - whose House of El was ostracized and shamed - as he fights to redeem his family's honor and save his beloved world from chaos. Written by ahmetkozan
Directorn/A
CastsCameron Cuffe,Georgina Campbell,Shaun Sipos,Ann Ogbomo,Aaron Pierre…
Runtime45 min
Genres
Krypton


Tags

Other releases

Same genre with Krypton S01E03 720p AMZN WEB-DL DD5.1 H.264-SiGMA

Farouk Omar S01 720p HDTV AVC SUBBED-MBCOutlander S02E02 720p HDTV X264-DIMENSIONBreaking In Season 1 720p HDTV x264-DIMENSIONEntertainer 2016 ViE 720p HDTV MP3 x264-HD4ShareThe Strain S03 720p HDTV x264-SceneBates Motel S02 1080p BluRay DD5.1 x264-SA89

Comment for Krypton S01E03 720p AMZN WEB-DL DD5.1 H.264-SiGMA

Only members can create comment.