Krypton S01E03 720p HDTV x264-AVS

Download Krypton S01E03 720p HDTV x264-AVS 
Small DescriptionSet two generations before the destruction of the legendary Man of Steel's home planet, KRYPTON follows Superman's grandfather - whose House of El was ostracized and shamed - as he fights to redeem his family's honor and save his beloved world from chaos.
Basic Info
Uploaded bydpc (Uploader) at 2018-04-07 16:56:41
Action
Social
  • 0
Hot Meter
  • Views: 350
  • Hits: 12
  • Snatched: 2 x time(s)
  • Last Action: 2018-07-08 13:10:32
Peers0 Seeder | 0 Leecher
Krypton S01E03 720p HDTV x264-AVS screenshots


"Krypton" là tên series truyền hình tham vọng của Syfy nhằm khắc hoạ cuộc chiến 200 năm trước khi Superman ra đời.
Theo chân hai thế hệ trước khi hành tinh quê hương của Superman bị tiêu diệt, Krypton xoay quanh Seg-El (Cameron Cuffe), ông của siêu anh hùng Man of Steel huyền thoại — người thuộc Gia tộc El bị đày ải và bị sỉ nhục. Khi nền lãnh đạo của Krypton bị xáo trộn, Seg-El tình cờ gặp một người du hành thời gian của Trái Đất tên Adam Strange (Shaun Sipos), hắn nói rằng ông có khả năng cứu được thế giới thân yêu của mình khỏi hỗn loạn. Trong quá trình chiến đấu để phục dựng lại gia tộc và bảo vệ người thân của mình, Seg đối mặt với quyết định sống còn – cứu hành tinh này, hay để nó bị diệt vong vì sự ra đời của cháu trai ông.



Krypton S01E03 720p HDTV x264-AVS screenshots


Quote
General
Unique ID                   : 193434783120265844272960513178569389300 (0x91862F21D0D38F1BB740A4E79575B4F4)
Complete name               : D:\Downloads\Phim\Krypton.S01.720p.HDTV.x264-Scene\Krypton.S01E03.720p.HDTV.x264-AVS.mkv
Format                      : Matroska
Format version              : Version 4 / Version 2
File size                   : 813 MiB
Duration                    : 41 min 40 s
Overall bit rate            : 2 727 kb/s
Encoded date                : UTC 2018-04-05 02:06:35
Writing application         : FastLE v3.0.0 - AVS
Writing library             : libx264 + libebml + libmatroska + libfastrar

Video
ID                          : 1
Format                      : AVC
Format/Info                 : Advanced Video Codec
Format profile              : High@L4.1
Format settings, CABAC      : Yes
Format settings, ReFrames   : 5 frames
Codec ID                    : V_MPEG4/ISO/AVC
Duration                    : 41 min 40 s
Bit rate                    : 2 288 kb/s
Width                       : 1 280 pixels
Height                      : 718 pixels
Display aspect ratio        : 16:9
Frame rate mode             : Constant
Frame rate                  : 23.976 (24000/1001) FPS
Color space                 : YUV
Chroma subsampling          : 4:2:0
Bit depth                   : 8 bits
Scan type                   : Progressive
Bits/(Pixel*Frame)          : 0.104
Stream size                 : 682 MiB (84%)
Writing library             : x264 core 155 r2901 7d0ff22
Encoding settings           : cabac=1 / ref=5 / deblock=1:0:0 / analyse=0x3:0x113 / me=hex / subme=8 / psy=1 / psy_rd=1.00:0.00 / mixed_ref=1 / me_range=16 / chroma_me=1 / trellis=2 / 8x8dct=1 / cqm=0 / deadzone=21,11 / fast_pskip=1 / chroma_qp_offset=-2 / threads=22 / lookahead_threads=3 / sliced_threads=0 / nr=0 / decimate=1 / interlaced=0 / bluray_compat=0 / constrained_intra=0 / bframes=3 / b_pyramid=2 / b_adapt=1 / b_bias=0 / direct=3 / weightb=1 / open_gop=0 / weightp=2 / keyint=250 / keyint_min=23 / scenecut=40 / intra_refresh=0 / rc_lookahead=50 / rc=crf / mbtree=1 / crf=18.0 / qcomp=0.60 / qpmin=0 / qpmax=69 / qpstep=4 / ip_ratio=1.40 / aq=1:1.00
Default                     : Yes
Forced                      : No
Color range                 : Limited
Matrix coefficients         : BT.709

Audio
ID                          : 2
Format                      : AC-3
Format/Info                 : Audio Coding 3
Mode extension              : CM (complete main)
Format settings, Endianness : Big
Codec ID                    : A_AC3
Duration                    : 41 min 40 s
Bit rate mode               : Constant
Bit rate                    : 384 kb/s
Channel(s)                  : 6 channels
Channel positions           : Front: L C R, Side: L R, LFE
Sampling rate               : 48.0 kHz
Frame rate                  : 31.250 FPS (1536 spf)
Bit depth                   : 16 bits
Compression mode            : Lossy
Stream size                 : 114 MiB (14%)
Default                     : Yes
Forced                      : No




Krypton S01E03 720p HDTV x264-AVS screenshots


Krypton S01E03 720p HDTV x264-AVS screenshots Krypton S01E03 720p HDTV x264-AVS screenshots Krypton S01E03 720p HDTV x264-AVS screenshots Krypton S01E03 720p HDTV x264-AVS screenshots



Krypton S01E03 720p HDTV x264-AVS screenshots



TitleKrypton
Year2018
Genre
Rating7.1 (9,497 votes)
PlotSet two generations before the destruction of the legendary Man of Steel's home planet, KRYPTON follows Superman's grandfather - whose House of El was ostracized and shamed - as he fights to redeem his family's honor and save his beloved world from chaos. Written by ahmetkozan
Directorn/A
CastsCameron Cuffe,Georgina Campbell,Shaun Sipos,Ann Ogbomo,Aaron Pierre…
Runtime45 min
Genres
Krypton


Tags

Other releases

Same genre with Krypton S01E03 720p HDTV x264-AVS

Law and Order SVU S17E10 720p HDTV X264-DIMENSIONThe Leftovers S02E01 720p HDTV DD5.1 x264-KILLERSShort End Of The Stick 2016 ViE 1080p HDTV AAC2.0  x264 Boardwalk Empire S03 720p HDTV x264-EVOLVECastle 2009 S08E22 720p HDTV X264-DIMENSIONSuits S04E04 720p HDTV X264-DIMENSION

Comment for Krypton S01E03 720p HDTV x264-AVS

Only members can create comment.