NetHD.org

Krypton S01E04 720p HDTV x264-AVS

Download Krypton S01E04 720p HDTV x264-AVS 
Small DescriptionSet two generations before the destruction of the legendary Man of Steel's home planet, KRYPTON follows Superman's grandfather - whose House of El was ostracized and shamed - as he fights to redeem his family's honor and save his beloved world from chaos.
Basic Info
Uploaded bydpc (Movie, Music) at 2018-04-12 13:23:58
Action
Social
  • 1
Hot Meter
  • Views: 477
  • Hits: 10
  • Snatched: 2 x time(s)
  • Last Action: 2018-07-09 20:08:14
Peers0 Seeder | 0 Leecher


Krypton S01E04 720p HDTV x264-AVS screenshots


"Krypton" là tên series truyền hình tham vọng của Syfy nhằm khắc hoạ cuộc chiến 200 năm trước khi Superman ra đời.
Theo chân hai thế hệ trước khi hành tinh quê hương của Superman bị tiêu diệt, Krypton xoay quanh Seg-El (Cameron Cuffe), ông của siêu anh hùng Man of Steel huyền thoại — người thuộc Gia tộc El bị đày ải và bị sỉ nhục. Khi nền lãnh đạo của Krypton bị xáo trộn, Seg-El tình cờ gặp một người du hành thời gian của Trái Đất tên Adam Strange (Shaun Sipos), hắn nói rằng ông có khả năng cứu được thế giới thân yêu của mình khỏi hỗn loạn. Trong quá trình chiến đấu để phục dựng lại gia tộc và bảo vệ người thân của mình, Seg đối mặt với quyết định sống còn – cứu hành tinh này, hay để nó bị diệt vong vì sự ra đời của cháu trai ông.



Krypton S01E04 720p HDTV x264-AVS screenshots


Quote
General
Unique ID                   : 244652873196174662473075417688444253977 (0xB80E6DF03B35F685B43D244C39043719)
Complete name               : D:\Downloads\Phim\Krypton.S01.720p.HDTV.x264-Scene\Krypton.S01E04.720p.HDTV.x264-AVS.mkv
Format                      : Matroska
Format version              : Version 4 / Version 2
File size                   : 819 MiB
Duration                    : 42 min 39 s
Overall bit rate            : 2 683 kb/s
Encoded date                : UTC 2018-04-12 02:04:15
Writing application         : FastLE v3.0.0 - AVS
Writing library             : libx264 + libebml + libmatroska + libfastrar

Video
ID                          : 1
Format                      : AVC
Format/Info                 : Advanced Video Codec
Format profile              : High@L4.1
Format settings, CABAC      : Yes
Format settings, ReFrames   : 5 frames
Codec ID                    : V_MPEG4/ISO/AVC
Duration                    : 42 min 39 s
Bit rate                    : 2 246 kb/s
Width                       : 1 280 pixels
Height                      : 718 pixels
Display aspect ratio        : 16:9
Frame rate mode             : Constant
Frame rate                  : 23.976 (24000/1001) FPS
Color space                 : YUV
Chroma subsampling          : 4:2:0
Bit depth                   : 8 bits
Scan type                   : Progressive
Bits/(Pixel*Frame)          : 0.102
Stream size                 : 685 MiB (84%)
Writing library             : x264 core 155 r2901 7d0ff22
Encoding settings           : cabac=1 / ref=5 / deblock=1:0:0 / analyse=0x3:0x113 / me=hex / subme=8 / psy=1 / psy_rd=1.00:0.00 / mixed_ref=1 / me_range=16 / chroma_me=1 / trellis=2 / 8x8dct=1 / cqm=0 / deadzone=21,11 / fast_pskip=1 / chroma_qp_offset=-2 / threads=22 / lookahead_threads=3 / sliced_threads=0 / nr=0 / decimate=1 / interlaced=0 / bluray_compat=0 / constrained_intra=0 / bframes=3 / b_pyramid=2 / b_adapt=1 / b_bias=0 / direct=3 / weightb=1 / open_gop=0 / weightp=2 / keyint=250 / keyint_min=23 / scenecut=40 / intra_refresh=0 / rc_lookahead=50 / rc=crf / mbtree=1 / crf=18.0 / qcomp=0.60 / qpmin=0 / qpmax=69 / qpstep=4 / ip_ratio=1.40 / aq=1:1.00
Default                     : Yes
Forced                      : No
Color range                 : Limited
Matrix coefficients         : BT.709

Audio
ID                          : 2
Format                      : AC-3
Format/Info                 : Audio Coding 3
Mode extension              : CM (complete main)
Format settings, Endianness : Big
Codec ID                    : A_AC3
Duration                    : 42 min 39 s
Bit rate mode               : Constant
Bit rate                    : 384 kb/s
Channel(s)                  : 6 channels
Channel positions           : Front: L C R, Side: L R, LFE
Sampling rate               : 48.0 kHz
Frame rate                  : 31.250 FPS (1536 spf)
Bit depth                   : 16 bits
Compression mode            : Lossy
Stream size                 : 117 MiB (14%)
Default                     : Yes
Forced                      : No




Krypton S01E04 720p HDTV x264-AVS screenshots


Krypton S01E04 720p HDTV x264-AVS screenshots Krypton S01E04 720p HDTV x264-AVS screenshots Krypton S01E04 720p HDTV x264-AVS screenshots Krypton S01E04 720p HDTV x264-AVS screenshots



Krypton S01E04 720p HDTV x264-AVS screenshots



TitleKrypton
Year2018
Genre
Rating7.1 (10,606 votes)
PlotSet two generations before the destruction of the legendary Man of Steel's home planet, KRYPTON follows Superman's grandfather - whose House of El was ostracized and shamed - as he fights to redeem his family's honor and save his beloved world from chaos. Written by ahmetkozan
Directorn/A
CastsCameron Cuffe,Georgina Campbell,Shaun Sipos,Ann Ogbomo,Aaron Pierre…
Runtime45 min
Genres
Krypton


Kukhnya 2012 S02 E1 720p HDTVCharmed 2018 S01E11 720p AMZN WEB-DL DDP5.1 H.264-KiNGS[K-Zone] Lucky Romance 2016 720p HDTV MP3 x264 Full 16Eps ViEThe Fall S01 720p BluRay FLAC 2.0 x264-NTbDuyên Tình Phương Xa 2014 (21 EPS) USLTFBI S01E02 720p AMZN WEB-DL DDP5.1 H.264-NTb

Only members can create comment.