Lara Fabian - Un regard 9 Live NTSC DVD9

Download Lara Fabian - Un regard 9 Live NTSC DVD9 
Small DescriptionLara Fabian - Un regard 9 Live NTSC DVD9
Basic Info
Uploaded bycongdt (Uploader) at 2018-08-05 02:20:18
Action
Social
  • 3
Hot Meter
  • Views: 194
  • Hits: 29
  • Snatched: 18 x time(s)
  • Last Action: 2018-11-15 19:59:57
Peers3 Seeder | 0 Leecher
Lara Fabian - Un regard 9 Live NTSC DVD9 screenshots 

Un regard 9 Live là tựa đề của hai đĩa CD và DVD từ chuyến lưu diễn cùng tên diễn ra trong hai năm 2005-2006 của nữ ca sĩ Lara Fabian, hỗ trợ cho album phòng thu phát hành năm 2005 có tựa đề 9. Đĩa CD và DVD được phát hành riêng và phát hành cùng nhau trong một phiên bản box set giới hạn. Cả hai đĩa đều được ghi hình trực tiếp vào ngày 29 tháng 3 năm 2006 tại nhà hát Zenith ở Paris, Pháp. CD gồm 15 màn biểu diễn trực tiếp và một bài hát mới, "Aime," được ghi âm tại một phòng thu tại Montreal, Quebec. Bài hát này được ghi âm bằng cả tiếng Anh và tiếng Pháp, tuy nhiên hiện chỉ có phiên bản tiếng Pháp được phát hành chính thức. Bài hát được thể hiện trực tiếp lần đầu trong một số buổi hòa nhạc tại Bỉ như một món quà cho những người hâm mộ mang quốc tịch Bỉ của nữ ca sĩ, tuy nhiên do lượng phản hồi hào hứng của khán giả quá lớn, nên Fabian thấy rằng cô nên ghi âm bài hát và đưa vào một sản phẩm sắp phát hành.

Toàn bộ buổi hòa nhạc trực tiếp giới thiệu những bài hát từ album phòng thu mới nhất của Fabian, 9, cũng như các bài hát cũ; tất cả đều được thể hiện theo phong cách acoustic. Một số ca khúc như "Tout" được sắp xếp lại để phù hợp với âm thanh mới và chủ đề của chương trình. Khoảnh khắc nổi bật trong buổi hòa nhạc việc Fabian thể hiện sự kính trọng tới thần tượng Barbra Streisand của cô, với các ca khúc "Papa Can You Hear Me" và "A Piece Of Sky", hai bài hát từ bộ phim Yentl công chiếu năm 1983 của Streisand. Cả hai bài hát này đều đã được Fabian trình diễn trước đó theo kiểu một hỗn hợp vào năm 1997, trong một buổi hòa nhạc tại Québec vào thời điểm Pure được phát hành. Đĩa DVD có chứa một số bài hát không được phát hành trong CD, như "Je T'Aime" và hai ca khúc tiếng Anh từ hai album tiếng Anh của nữ ca sĩ, "Broken Vow" và "I Guess I Loved You". Theo Fabian, hai bài hát này có giá trị trên phương diện thị giác hơn là chỉ nghe trên một bản ghi âm. DVD cũng bao gồm màn trình diễn gần 10 phút của ca khúc "Humana", một bài hát trong album phát hành năm 1997 Pure. "Humana" có thời lượng dài hơn dự kiến do sự hào hứng của khán giả trong buổi hòa nhạc.

Danh sách bài hát của DVD:
Je t’aime
Les Homéricains
J’y crois encore
Il ne manquait que toi
Tu es mon autre
Si tu n’as pas d’amour
Silence
Speranza
I Guess I Loved You
Broken Vow
Humana
Un Ave Maria
Immortelle
Bambina
Tout
Le Tour du Monde
L'homme qui n'avait pas de maison
La Lettre
Papa, Can You Hear Me?
A Piece Of Sky
Je me souviens

Quote
Media Infor:
General
Complete name               : F:\_VIDEO HD\Lara Fabian - Un regard 9 Live NTSC DVD9\VIDEO_TS\VTS_04_1.VOB
Format                      : MPEG-PS
File size                   : 1 024 MiB
Duration                    : 18 min 39 s
Overall bit rate mode       : Variable
Overall bit rate            : 7 675 kb/s

Video
ID                          : 224 (0xE0)
Format                      : MPEG Video
Format version              : Version 2
Format profile              : Main@Main
Format settings             : CustomMatrix / BVOP
Format settings, BVOP       : Yes
Format settings, Matrix     : Custom
Format settings, GOP        : M=3, N=15
Format settings, picture st : Frame
Duration                    : 18 min 39 s
Bit rate mode               : Variable
Bit rate                    : 4 784 kb/s
Maximum bit rate            : 6 434 kb/s
Width                       : 720 pixels
Height                      : 480 pixels
Display aspect ratio        : 16:9
Frame rate                  : 29.970 (30000/1001) FPS
Standard                    : NTSC
Color space                 : YUV
Chroma subsampling          : 4:2:0
Bit depth                   : 8 bits
Scan type                   : Interlaced
Scan order                  : Top Field First
Compression mode            : Lossy
Bits/(Pixel*Frame)          : 0.462
Time code of first frame    : 09:59:59:15
Time code source            : Group of pictures header
GOP, Open/Closed            : Open
GOP, Open/Closed of first f : Closed
Stream size                 : 638 MiB (62%)

Audio #1
ID                          : 189 (0xBD)-129 (0x81)
Format                      : AC-3
Format/Info                 : Audio Coding 3
Muxing mode                 : DVD-Video
Duration                    : 18 min 38 s
Bit rate mode               : Constant
Bit rate                    : 448 kb/s
Channel(s)                  : 6 channels
Channel positions           : Front: L C R, Side: L R, LFE
Sampling rate               : 48.0 kHz
Frame rate                  : 31.250 FPS (1536 SPF)
Bit depth                   : 16 bits
Compression mode            : Lossy
Stream size                 : 59.8 MiB (6%)
Service kind                : Complete Main

Audio #2
ID                          : 189 (0xBD)-138 (0x8A)
Format                      : DTS
Format/Info                 : Digital Theater Systems
Muxing mode                 : DVD-Video
Duration                    : 18 min 38 s
Bit rate mode               : Constant
Bit rate                    : 755 kb/s
Channel(s)                  : 6 channels
Channel positions           : Front: L C R, Side: L R, LFE
Sampling rate               : 48.0 kHz
Frame rate                  : 93.750 FPS (512 SPF)
Bit depth                   : 16 bits
Compression mode            : Lossy
Stream size                 : 101 MiB (10%)

Audio #3
ID                          : 189 (0xBD)-160 (0xA0)
Format                      : PCM
Format settings             : Big / Signed
Muxing mode                 : DVD-Video
Duration                    : 18 min 38 s
Bit rate mode               : Constant
Bit rate                    : 1 536 kb/s
Channel(s)                  : 2 channels
Sampling rate               : 48.0 kHz
Bit depth                   : 16 bits
Stream size                 : 205 MiB (20%)



Screen shot:

Lara Fabian - Un regard 9 Live NTSC DVD9 screenshots Lara Fabian - Un regard 9 Live NTSC DVD9 screenshots Lara Fabian - Un regard 9 Live NTSC DVD9 screenshots Lara Fabian - Un regard 9 Live NTSC DVD9 screenshots

Lara Fabian - Un regard 9 Live NTSC DVD9 screenshots Lara Fabian - Un regard 9 Live NTSC DVD9 screenshots Lara Fabian - Un regard 9 Live NTSC DVD9 screenshots Lara Fabian - Un regard 9 Live NTSC DVD9 screenshots

Lara Fabian - Un regard 9 Live NTSC DVD9 screenshots Lara Fabian - Un regard 9 Live NTSC DVD9 screenshots Lara Fabian - Un regard 9 Live NTSC DVD9 screenshots Lara Fabian - Un regard 9 Live NTSC DVD9 screenshots



Tags

Other releases

Same genre with Lara Fabian - Un regard 9 Live NTSC DVD9

Paris By Night 115 Nét Đẹp Á Đông (2015) NTSC 3xDVD9Lionel Richie - Festival de Viña del Mar 2016 1080p HDTV mp4Paris By Night 111 S 2014 BluRay mHD720p AC3 5.1&2 0 x264 final-CotiYanni - Live At The Acropolis (1994) DVDLady Antebellum - Own the Night World Tour 2012 720p BluRay x264 EbPLaura Pausini - Stasera Laura Ho creduto in un sogno (2014) HDTV 1080i

Comment for Lara Fabian - Un regard 9 Live NTSC DVD9

Only members can create comment.