Legion S02E04 720p HDTV x264-AVS

Download Legion S02E04 720p HDTV x264-AVS 
Small DescriptionDị Nhân Legion
Basic Info
Uploaded bydpc (Uploader) at 2018-04-26 10:15:17
Action
Social
  • 0
Hot Meter
  • Views: 427
  • Hits: 23
  • Snatched: 16 x time(s)
  • Last Action: 2018-10-22 05:29:53
Peers1 Seeder | 0 Leecher
Legion S02E04 720p HDTV x264-AVS screenshots


Phim Dị Nhân Legion xoay quanh David Haller - người được chẩn đoán bị tâm thần phân liệt lúc còn thiếu niên, David phải ở lại bệnh viện nhận sự điều trị từ các bác sĩ trong nhiều năm trời. Sau khi gặp gỡ với một bệnh nhân cùng viện, anh phát hiện ra sức mạnh phi thường của mình. David Haller aka Legion cũng chính con trai của giáo sư Charles Xavier. Bom tấn truyền hình của Marvel này có sự tham gia của tài tử Dan Stevens và nằm dưới sự chỉ đạo của Noah Hawley - người đã đoạt giải Emmy với siêu phẩm Fargo.



Legion S02E04 720p HDTV x264-AVS screenshots


Quote
General
Unique ID                   : 234553766188621342989210915861230114864 (0xB075698518CB6F129BEF86903E31D830)
Complete name               : D:\Downloads\Phim\Legion.S02.720p.HDTV.x264-Scene\Legion.S02E04.720p.HDTV.x264-AVS.mkv
Format                      : Matroska
Format version              : Version 4 / Version 2
File size                   : 1.01 GiB
Duration                    : 41 min 25 s
Overall bit rate            : 3 493 kb/s
Encoded date                : UTC 2018-04-25 02:03:31
Writing application         : FastLE v3.0.0 - AVS
Writing library             : libx264 + libebml + libmatroska + libfastrar

Video
ID                          : 1
Format                      : AVC
Format/Info                 : Advanced Video Codec
Format profile              : High@L4.1
Format settings, CABAC      : Yes
Format settings, ReFrames   : 5 frames
Codec ID                    : V_MPEG4/ISO/AVC
Duration                    : 41 min 25 s
Bit rate                    : 3 040 kb/s
Width                       : 1 280 pixels
Height                      : 720 pixels
Display aspect ratio        : 16:9
Frame rate mode             : Constant
Frame rate                  : 23.976 (24000/1001) FPS
Color space                 : YUV
Chroma subsampling          : 4:2:0
Bit depth                   : 8 bits
Scan type                   : Progressive
Bits/(Pixel*Frame)          : 0.138
Stream size                 : 901 MiB (87%)
Writing library             : x264 core 155 r2901 7d0ff22
Encoding settings           : cabac=1 / ref=5 / deblock=1:0:0 / analyse=0x3:0x113 / me=hex / subme=8 / psy=1 / psy_rd=1.00:0.00 / mixed_ref=1 / me_range=16 / chroma_me=1 / trellis=2 / 8x8dct=1 / cqm=0 / deadzone=21,11 / fast_pskip=1 / chroma_qp_offset=-2 / threads=22 / lookahead_threads=3 / sliced_threads=0 / nr=0 / decimate=1 / interlaced=0 / bluray_compat=0 / constrained_intra=0 / bframes=3 / b_pyramid=2 / b_adapt=1 / b_bias=0 / direct=3 / weightb=1 / open_gop=0 / weightp=2 / keyint=250 / keyint_min=23 / scenecut=40 / intra_refresh=0 / rc_lookahead=50 / rc=crf / mbtree=1 / crf=18.0 / qcomp=0.60 / qpmin=0 / qpmax=69 / qpstep=4 / ip_ratio=1.40 / aq=1:1.00
Default                     : Yes
Forced                      : No
Color range                 : Limited
Matrix coefficients         : BT.709

Audio
ID                          : 2
Format                      : AC-3
Format/Info                 : Audio Coding 3
Mode extension              : CM (complete main)
Format settings, Endianness : Big
Codec ID                    : A_AC3
Duration                    : 41 min 25 s
Bit rate mode               : Constant
Bit rate                    : 384 kb/s
Channel(s)                  : 6 channels
Channel positions           : Front: L C R, Side: L R, LFE
Sampling rate               : 48.0 kHz
Frame rate                  : 31.250 FPS (1536 spf)
Bit depth                   : 16 bits
Compression mode            : Lossy
Stream size                 : 114 MiB (11%)
Default                     : Yes
Forced                      : No





Legion S02E04 720p HDTV x264-AVS screenshots



TitleLegion
Year2017
Genre
Rating8.4 (67,492 votes)
PlotLegion, based on the Marvel Comics by Chris Claremont and Bill Sienkiewicz, is the story of David Haller (Dan Stevens), a troubled young man who may be more than human. Diagnosed as schizophrenic as a child, David has been in and out of psychiatric hospitals for years. Now in his early 20's and free once again, David loses himself in the rhythm of the structured regimen of daily life: breakfast, lunch, dinner, therapy, medications, sleep. David spends the rest of his time in companionable…
Directorn/A
CastsDan Stevens,Rachel Keller,Aubrey Plaza,Bill Irwin,Jeremie Harris…
Runtime60 min
Genres
Legion


Tags

Other releases

Same genre with Legion S02E04 720p HDTV x264-AVS

The Strain S01 720p BluRay DD5.1 x264-NTbThe Affair S02 REPACK 1080p AMZN WEBRip DD5.1 x264 - NTbNowhere Boys S03 720p AMZN WEB-DL DDP2.0 x264-NTGDetective Samoyeds 2017 ViE 1080p HDTV AAC x264Penny Dreadful S03E04 720p HDTV x264-AVSBanshee S04E04 720p HDTV x264-AVS

Comment for Legion S02E04 720p HDTV x264-AVS

Only members can create comment.