NetHD.org

London Fields 2018 AMZN 1080p WEBRip DD5.1 x264-TeamHD

Download London Fields 2018 AMZN 1080p WEBRip DD5.1 x264-TeamHD 
Small Description18+ |Lưới Tình Luân Đôn
Basic Info
Uploaded byAnonymous at 2019-03-12 20:38:37
Action
Social
  • 16
Hot Meter
  • Views: 1084
  • Hits: 154
  • Snatched: 128 x time(s)
  • Last Action: 2019-03-23 16:51:23
Peers23 Seeder | 0 Leecher


London Fields 2018 AMZN 1080p WEBRip DD5.1 x264-TeamHD screenshots



Quote
General
Unique ID                                : 91941881840545488031217581518665140128 (0x452B5CC22EEC8222A4196183F0D5C7A0)
Complete name                            : /media/sde1/nethd/private/rtorrent/data/London.Fields.2018.AMZN.WEBRip 1080p.TeamHD.mkv
Format                                   : Matroska
Format version                           : Version 4 / Version 2
File size                                : 7.28 GiB
Duration                                 : 1 h 47 min
Overall bit rate                         : 9 695 kb/s
Movie name                               : London.Fields.2018.AMZN.WEBRip 1080p.TeamHD
Encoded date                             : UTC 2019-03-09 11:58:05
Writing application                      : mkvmerge v29.0.0 ('Like It Or Not') 64-bit
Writing library                          : libebml v1.3.6 + libmatroska v1.4.9

Video
ID                                       : 1
Format                                   : AVC
Format/Info                              : Advanced Video Codec
Format profile                           : High@L4
Format settings, CABAC                   : Yes
Format settings, ReFrames                : 4 frames
Codec ID                                 : V_MPEG4/ISO/AVC
Duration                                 : 1 h 47 min
Bit rate mode                            : Constant
Bit rate                                 : 8 669 kb/s
Nominal bit rate                         : 10 000 kb/s
Width                                    : 1 920 pixels
Height                                   : 800 pixels
Display aspect ratio                     : 2.40:1
Frame rate mode                          : Constant
Frame rate                               : 23.976 (24000/1001) FPS
Color space                              : YUV
Chroma subsampling                       : 4:2:0
Bit depth                                : 8 bits
Scan type                                : Progressive
Bits/(Pixel*Frame)                       : 0.235
Stream size                              : 6.51 GiB (89%)
Title                                    : London.Fields.2018.AMZN.WEBRip 1080p.TeamHD
Default                                  : Yes
Forced                                   : No
Color range                              : Limited
Color primaries                          : BT.709
Transfer characteristics                 : BT.709
Matrix coefficients                      : BT.709

Audio #1
ID                                       : 2
Format                                   : AC-3
Format/Info                              : Audio Coding 3
Mode extension                           : CM (complete main)
Format settings, Endianness              : Big
Codec ID                                 : A_AC3
Duration                                 : 1 h 47 min
Bit rate mode                            : Constant
Bit rate                                 : 384 kb/s
Channel(s)                               : 6 channels
Channel positions                        : Front: L C R, Side: L R, LFE
Sampling rate                            : 48.0 kHz
Frame rate                               : 31.250 FPS (1536 spf)
Bit depth                                : 16 bits
Compression mode                         : Lossy
Stream size                              : 295 MiB (4%)
Title                                    : Dub (iTunes)
Language                                 : Russian
Default                                  : Yes
Forced                                   : Yes

Audio #2
ID                                       : 3
Format                                   : E-AC-3
Format/Info                              : Enhanced Audio Coding 3
Format settings, Endianness              : Big
Codec ID                                 : A_EAC3
Duration                                 : 1 h 47 min
Bit rate mode                            : Constant
Bit rate                                 : 640 kb/s
Channel(s)                               : 6 channels
Channel positions                        : Front: L C R, Side: L R, LFE
Sampling rate                            : 48.0 kHz
Frame rate                               : 187.500 FPS (256 spf)
Compression mode                         : Lossy
Stream size                              : 492 MiB (7%)
Title                                    : Original (Eng)
Language                                 : English
Default                                  : No
Forced                                   : No

Text
ID                                       : 4
Format                                   : UTF-8
Codec ID                                 : S_TEXT/UTF8
Codec ID/Info                            : UTF-8 Plain Text
Duration                                 : 1 h 47 min
Bit rate                                 : 56 b/s
Count of elements                        : 1645
Stream size                              : 44.7 KiB (0%)
Title                                    : SDH
Language                                 : English
Default                                  : No
Forced                                   : No



London Fields 2018 AMZN 1080p WEBRip DD5.1 x264-TeamHD screenshots London Fields 2018 AMZN 1080p WEBRip DD5.1 x264-TeamHD screenshots London Fields 2018 AMZN 1080p WEBRip DD5.1 x264-TeamHD screenshots

London Fields 2018 AMZN 1080p WEBRip DD5.1 x264-TeamHD screenshots London Fields 2018 AMZN 1080p WEBRip DD5.1 x264-TeamHD screenshots London Fields 2018 AMZN 1080p WEBRip DD5.1 x264-TeamHD screenshots

London Fields 2018 AMZN 1080p WEBRip DD5.1 x264-TeamHD screenshots London Fields 2018 AMZN 1080p WEBRip DD5.1 x264-TeamHD screenshots London Fields 2018 AMZN 1080p WEBRip DD5.1 x264-TeamHD screenshots


TitleLondon Fields
Year2018
Genre
Rating4.4 (1,880 votes)
Plotn/A
DirectorMathew Cullen
CastsAmber Heard,Gemma Chan,Cara Delevingne,Jaimie Alexander,Jason Isaacs…
Runtime118 min
Genres
London Fields


PTU 2003 1080p Blu-ray AVC LPCM 7.1-CHDBitsWild Horses 2015 1080p BluRay DTS x264-HRThe Girl with the Dragon Tattoo 2009 mHD BluRay DD5.1 x264-TRiM Crooked House 2017 mHD BluRay DD5.1 x264-TRiMMaigret et l'affaire Saint-Fiacre 1959 720p BluRay FLAC x264-EALéon: The Professional 1994 2in1 720p BluRay DTS x264-ESiR

Only members can create comment.