NetHD.org

Love 911 2012.1080p BluRay DTS x264 D-Z0N3

Download Love 911 2012.1080p BluRay DTS x264 D-Z0N3 
Small Descriptioninternal HDB encode
Basic Info
Uploaded byAnonymous at 2019-05-15 21:21:40
Action
Social
  • 1
Hot Meter
  • Views: 100
  • Hits: 14
  • Snatched: 7 x time(s)
  • Last Action: 2019-05-24 07:13:22
Peers1 Seeder | 0 Leecher


Love 911 2012.1080p BluRay DTS x264 D-Z0N3 screenshots




Quote
General
Unique ID                                : 215743107955026771008167143703640305160 (0xA24E9C76FC4D05B4321E559162EC6E08)
Complete name                            : /media/sdq1/nethd/private/rtorrent/data/Love.911.2012.1080p.BluRay.DTS.x264.D-Z0N3.mkv
Format                                   : Matroska
Format version                           : Version 4 / Version 2
File size                                : 15.8 GiB
Duration                                 : 2 h 0 min
Overall bit rate                         : 18.7 Mb/s
Encoded date                             : UTC 2019-05-13 22:31:52
Writing application                      : mkvmerge v33.1.0 ('Primrose') 64-bit
Writing library                          : libebml v1.3.7 + libmatroska v1.5.0

Video
ID                                       : 1
Format                                   : AVC
Format/Info                              : Advanced Video Codec
Format profile                           : High@L4.1
Format settings, CABAC                   : Yes
Format settings, ReFrames                : 5 frames
Codec ID                                 : V_MPEG4/ISO/AVC
Duration                                 : 2 h 0 min
Bit rate                                 : 17.2 Mb/s
Width                                    : 1 920 pixels
Height                                   : 820 pixels
Display aspect ratio                     : 2.35:1
Frame rate mode                          : Constant
Frame rate                               : 23.976 (24000/1001) FPS
Color space                              : YUV
Chroma subsampling                       : 4:2:0
Bit depth                                : 8 bits
Scan type                                : Progressive
Bits/(Pixel*Frame)                       : 0.455
Stream size                              : 14.5 GiB (92%)
Writing library                          : x264 core 157 r2970+1 f9fa92b
Encoding settings                        : cabac=1 / ref=5 / deblock=1:-3:-3 / analyse=0x3:0x133 / me=umh / subme=10 / psy=1 / psy_rd=1.23:0.00 / mixed_ref=1 / me_range=32 / chroma_me=1 / trellis=2 / 8x8dct=1 / cqm=0 / deadzone=11,11 / fast_pskip=1 / chroma_qp_offset=-3 / threads=4 / lookahead_threads=1 / sliced_threads=0 / nr=0 / decimate=0 / interlaced=0 / bluray_compat=0 / constrained_intra=0 / bframes=8 / b_pyramid=2 / b_adapt=2 / b_bias=0 / direct=3 / weightb=1 / open_gop=0 / weightp=2 / keyint=250 / keyint_min=23 / scenecut=40 / intra_refresh=0 / rc_lookahead=250 / rc=crf / mbtree=0 / crf=16.0 / qcomp=0.65 / qpmin=0 / qpmax=69 / qpstep=4 / vbv_maxrate=62500 / vbv_bufsize=78125 / crf_max=0.0 / nal_hrd=none / filler=0 / ip_ratio=1.30 / pb_ratio=1.20 / aq=3:0.80
Language                                 : Korean
Default                                  : Yes
Forced                                   : No
Color range                              : Limited
Color primaries                          : BT.709
Matrix coefficients                      : BT.709

Audio
ID                                       : 2
Format                                   : DTS
Format/Info                              : Digital Theater Systems
Mode                                     : 16
Format settings, Endianness              : Big
Codec ID                                 : A_DTS
Duration                                 : 2 h 0 min
Bit rate mode                            : Constant
Bit rate                                 : 1 509 kb/s
Channel(s)                               : 6 channels
Channel positions                        : Front: L C R, Side: L R, LFE
Sampling rate                            : 48.0 kHz
Frame rate                               : 93.750 FPS (512 spf)
Bit depth                                : 16 bits
Compression mode                         : Lossy
Stream size                              : 1.27 GiB (8%)
Language                                 : Korean
Default                                  : Yes
Forced                                   : No

Text #1
ID                                       : 3
Format                                   : UTF-8
Codec ID                                 : S_TEXT/UTF8
Codec ID/Info                            : UTF-8 Plain Text
Duration                                 : 1 h 56 min
Bit rate                                 : 37 b/s
Count of elements                        : 1496
Stream size                              : 31.6 KiB (0%)
Language                                 : English
Default                                  : Yes
Forced                                   : No

Text #2
ID                                       : 4
Format                                   : PGS
Muxing mode                              : zlib
Codec ID                                 : S_HDMV/PGS
Codec ID/Info                            : Picture based subtitle format used on BDs/HD-DVDs
Duration                                 : 1 h 55 min
Bit rate                                 : 80.2 kb/s
Count of elements                        : 4666
Stream size                              : 66.4 MiB (0%)
Language                                 : Korean
Default                                  : No
Forced                                   : No



Love 911 2012.1080p BluRay DTS x264 D-Z0N3 screenshots Love 911 2012.1080p BluRay DTS x264 D-Z0N3 screenshots Love 911 2012.1080p BluRay DTS x264 D-Z0N3 screenshots
Love 911 2012.1080p BluRay DTS x264 D-Z0N3 screenshots Love 911 2012.1080p BluRay DTS x264 D-Z0N3 screenshots Love 911 2012.1080p BluRay DTS x264 D-Z0N3 screenshots



TitleYêu Khân Câp
Year2012
Genre
Rating6.9 (1,556 votes)
PlotMi-Soo (Han Hyo-Joo) is a doctor with a fiery spirit. Unfortunately, her fiery spirit gets the best of her one day at work. Mi-Soo fails to properly diagnosis an ill woman. Her husband sues the hospital and Mi-Soo is advised to find a character witness. Kang-Il (Ko Soo) is a dedicated firefighter, who doesn't blink when it comes to saving someone else's life.His boss ordered Kang-Il to follow the husband and to make sure he doesn't do anything rash. The husband eventually confronts Kang-Il and…
DirectorGi-hoon Jeong
CastsSoo Go,Hyo-Joo Han,Jyu-ni Hyun,Seo-Yeon Jin,Jin-young Jung…
Runtime120 min
Genres
Yêu Khân Câp


Tout ça    pour ça! 1993 mHD BluRay FLAC2.0 x264-TRiMCrazy Rich Asians 2018 2160p UHD Blu-ray HEVC DTS-HD MA 5.1-COASTERSleeper 1973 1080p Blu-ray AVC DTS-HD MA 1.0- fantome13Finding Mr. Right 2013 720p BluRay DD5.1 x264-EbPThe Women 1939 1080p BluRay DTS x264-AMIABLEThe Princess Diaries 2001 720p BluRay DD5 1 x264-EbP

Only members can create comment.