Maison Close S01 1080p BluRay DD2.0 x264-TENEIGHTY

Download Maison Close S01 1080p BluRay DD2.0 x264-TENEIGHTY Free
Small Description18+
Basic Info
Uploaded byAnonymous at 2018-12-01 05:09:14
Action
Social
  • 7
Hot Meter
  • Views: 1214
  • Hits: 115
  • Snatched: 67 x time(s)
  • Last Action: 2018-12-17 09:54:22
Peers15 Seeder | 0 Leecher
Maison Close S01 1080p BluRay DD2.0 x264-TENEIGHTY screenshots




Quote
General
Unique ID                                : 206726506382244753904344797823640109130 (0x9B8613AF537499C2B51160D44725804A)
Complete name                            : teneighty-maison.close.s01e01.mkv
Format                                   : Matroska
Format version                           : Version 2
File size                                : 3.97 GiB
Duration                                 : 55mn 30s
Overall bit rate                         : 10.2 Mbps
Encoded date                             : UTC 2012-09-07 11:16:58
Writing application                      : mkvmerge v5.8.0 ('No Sleep / Pillow') built on Sep  2 2012 15:37:04
Writing library                          : libebml v1.2.3 + libmatroska v1.3.0

Video
ID                                       : 1
Format                                   : AVC
Format/Info                              : Advanced Video Codec
Format profile                           : High@L4.1
Format settings, CABAC                   : Yes
Format settings, ReFrames                : 4 frames
Muxing mode                              : Header stripping
Codec ID                                 : V_MPEG4/ISO/AVC
Duration                                 : 55mn 30s
Bit rate                                 : 9 597 Kbps
Width                                    : 1 920 pixels
Height                                   : 1 080 pixels
Display aspect ratio                     : 16:9
Frame rate mode                          : Constant
Frame rate                               : 25.000 fps
Color space                              : YUV
Chroma subsampling                       : 4:2:0
Bit depth                                : 8 bits
Scan type                                : Progressive
Bits/(Pixel*Frame)                       : 0.185
Stream size                              : 3.64 GiB (92%)
Writing library                          : x264 core 125 r2208 d9d2288
Encoding settings                        : cabac=1 / ref=4 / deblock=1:0:0 / analyse=0x3:0x133 / me=umh / subme=8 / psy=1 / psy_rd=1.00:0.00 / mixed_ref=1 / me_range=16 / chroma_me=1 / trellis=1 / 8x8dct=1 / cqm=0 / deadzone=21,11 / fast_pskip=0 / chroma_qp_offset=-2 / threads=18 / lookahead_threads=3 / sliced_threads=0 / nr=0 / decimate=1 / interlaced=0 / bluray_compat=0 / constrained_intra=0 / bframes=3 / b_pyramid=2 / b_adapt=1 / b_bias=0 / direct=1 / weightb=1 / open_gop=0 / weightp=2 / keyint=250 / keyint_min=25 / scenecut=40 / intra_refresh=0 / rc_lookahead=40 / rc=2pass / mbtree=1 / bitrate=9597 / ratetol=1.0 / qcomp=0.60 / qpmin=0 / qpmax=69 / qpstep=4 / cplxblur=20.0 / qblur=0.5 / ip_ratio=1.40 / aq=1:1.00
Language                                 : English
Default                                  : Yes
Forced                                   : No

Audio
ID                                       : 2
Format                                   : AC-3
Format/Info                              : Audio Coding 3
Mode extension                           : CM (complete main)
Format settings, Endianness              : Big
Muxing mode                              : Header stripping
Codec ID                                 : A_AC3
Duration                                 : 55mn 30s
Bit rate mode                            : Constant
Bit rate                                 : 640 Kbps
Channel(s)                               : 2 channels
Channel positions                        : Front: L R
Sampling rate                            : 48.0 KHz
Frame rate                               : 31.250 fps (1536 spf)
Compression mode                         : Lossy
Stream size                              : 254 MiB (6%)
Title                                    : French
Language                                 : French
Default                                  : Yes
Forced                                   : Yes

Text
ID                                       : 3
Format                                   : UTF-8
Codec ID                                 : S_TEXT/UTF8
Codec ID/Info                            : UTF-8 Plain Text
Title                                    : English
Language                                 : English
Default                                  : Yes
Forced                                   : Yes





Maison Close S01 1080p BluRay DD2.0 x264-TENEIGHTY screenshots Maison Close S01 1080p BluRay DD2.0 x264-TENEIGHTY screenshots Maison Close S01 1080p BluRay DD2.0 x264-TENEIGHTY screenshots

Maison Close S01 1080p BluRay DD2.0 x264-TENEIGHTY screenshots Maison Close S01 1080p BluRay DD2.0 x264-TENEIGHTY screenshots Maison Close S01 1080p BluRay DD2.0 x264-TENEIGHTY screenshots

TitleMaison close
Year2013
GenreDrama
Rating5.6 (7 votes)
PlotThe residents of The Paradise are forced to cohabitate with a band of Parisian thugs with highly questionable morals. Facing grave financial difficulties, the brothel must also survive the rise to power of a royalist chief commissioner who marks the return of a Moral Order.
DirectorMabrouk El Mechri
CastsAnne Charrier,Valérie Karsenti,Jemima West,Michaël Cohen,Catherine Hosmalin…
Runtime47 min
GenresDrama
Maison close


Tags

Other releases

Same genre with Maison Close S01 1080p BluRay DD2.0 x264-TENEIGHTY

Superstore S01E08 720p HDTV x264-AVSNCIS S14E07 720p HDTV X264-DIMENSIONThe Young Detective - Phần 1-2-3 Full 49 Days 2011 720p HDTV x264-HDATBeauty and the Beast S04E07 720p HDTV x264-KILLERSModern Family S07E13 720p HDTV x264-AVS

Comment for Maison Close S01 1080p BluRay DD2.0 x264-TENEIGHTY

Only members can create comment.