NetHD.org

Mangal Pandey 2005 Hindi 1080p Untouched WEB-DL x264 AAC - Hon3y

Download Mangal Pandey 2005 Hindi 1080p Untouched WEB-DL x264 AAC - Hon3y 
Small Description1857 AD. The entire Indian sub continent is ruled by a company. The British East India Company. The most successful business enterprise in history. The company has its own laws, its own administration, its own army. It controls the destiny of one fifth of humanity. Mangal Pandey - The Rising is an epic tale of friendship, betrayal, love and sacrifice set against the backdrop of what the British called the sepoy mutiny but which for the Indians was the First War of Independence. 'Company Raj' as…
Basic Info
Uploaded byAnonymous at 2019-06-12 19:35:38
Action
Social
  • 1
Hot Meter
  • Views: 110
  • Hits: 12
  • Snatched: 7 x time(s)
  • Last Action: 2019-06-17 01:42:10
Peers1 Seeder | 0 Leecher


General
Unique ID : 180886264842803473482256081070867579678 (0x88156D6A03DB5F178AACB45B21AB831E)
Complete name : Mangal Pandey 2005 Hindi 1080p Untouched WEB-DL x264 AAC ESub - Hon3y.mkv
Format : Matroska
Format version : Version 4 / Version 2
File size : 5.95 GiB
Duration : 2 h 25 min
Overall bit rate : 5 872 kb/s
Movie name : Mangal Pandey / 2005-Hon3y
Encoded date : UTC 2017-09-11 22:31:37
Writing application : mkvmerge v14.0.0 ('Flow') 64bit
Writing library : libebml v1.3.4 + libmatroska v1.4.5

Video
ID : 1
Format : AVC
Format/Info : Advanced Video Codec
Format profile : High@L4.1
Format settings, CABAC : Yes
Format settings, RefFrames : 1 frame
Format settings, GOP : M=1, N=25
Codec ID : V_MPEG4/ISO/AVC
Duration : 2 h 25 min
Bit rate mode : Constant
Bit rate : 6 000 kb/s
Width : 1 920 pixels
Height : 1 080 pixels
Display aspect ratio : 16:9
Frame rate mode : Constant
Frame rate : 25.000 FPS
Color space : YUV
Chroma subsampling : 4:2:0
Bit depth : 8 bits
Scan type : Progressive
Bits/(Pixel*Frame) : 0.116
Stream size : 5.82 GiB (98%)
Default : Yes
Forced : No

Audio
ID : 2
Format : AAC
Format/Info : Advanced Audio Codec
Format profile : LC
Codec ID : A_AAC
Duration : 2 h 25 min
Bit rate : 125 kb/s
Channel(s) : 2 channels
Channel positions : Front: L R
Sampling rate : 48.0 kHz
Frame rate : 46.875 FPS (1024 SPF)
Compression mode : Lossy
Stream size : 130 MiB (2%)
Language : Hindi
Default : Yes
Forced : No

Text
ID : 3
Format : UTF-8
Codec ID : S_TEXT/UTF8
Codec ID/Info : UTF-8 Plain Text
Duration : 2 h 20 min
Bit rate : 56 b/s
Count of elements : 1726
Stream size : 58.3 KiB (0%)
Language : English
Default : Yes
Forced : No

TitleMangal Pandey: The Rising
Year2005
Genre
Rating6.7 (8,762 votes)
Plot1857 AD. The entire Indian sub continent is ruled by a company. The British East India Company. The most successful business enterprise in history. The company has its own laws, its own administration, its own army. It controls the destiny of one fifth of humanity. Mangal Pandey - The Rising is an epic tale of friendship, betrayal, love and sacrifice set against the backdrop of what the British called the sepoy mutiny but which for the Indians was the First War of Independence. 'Company Raj' as…
DirectorKetan Mehta
CastsAamir Khan,Rani Mukerji,Toby Stephens,Coral Beed,Ameesha Patel…
Runtime150 min
Mangal Pandey: The Rising


Death Race 2050 2017 mHD Bluray DD5.1 x264-TRiMKick 2014 1080p BluRay x264 DTSHD-MA Esubs-TeamTelly Enter the Dragon 1973 Remastered 1080p Blu-ray AVC DTS-HD MA 5.1-EbPKill Me Three Times 2014 ViE 720p BluRay DTS x264-HDAccessWhite Sun of the Desert 1970 ViE 720p Bluray DD2.0 x264 - NeoclubProhibited Sex Sweet Revenge 2016 KR 1080p WEB-DL DD2.0 x264-KOOK

Only members can create comment.