NetHD.org

Manny 2014 1080p BluRay Remux AVC DTS-HD MA 5.1-PTer

Download Manny 2014 1080p BluRay Remux AVC DTS-HD MA 5.1-PTer 
Small DescriptionA man who overcame insurmountable odds to become one of the most loved and respected athletes of all time. From a starving teenager who fought to feed his family, to a Congressman working tirelessly to improve the lives of his people, Manny is a hard hitting feature length documentary film that explores the many triumphs and tribulations of Filipino boxing sensation Manny Pacquiao. Written by Anonymous
Basic Info
Uploaded byAncREOsH (Power User) at 2020-10-17 04:33:37
Action
Hot Meter
  • Views: 104
  • Hits: 8
  • Snatched: 5 x time(s)
  • Last Action: 2020-10-31 04:36:42
Peers1 Seeder | 0 Leecher




CODE
General
Unique ID : 135011603902261106881621283138892460012 (0x65924A011D67157E758CE86BB103EFEC)
Complete name : Manny 2014 1080p Blu-ray Remux AVC DTS-HD MA 5.1-PTer.mkv
Format : Matroska
Format version : Version 4
File size : 19.5 GiB
Duration : 1 h 27 min
Overall bit rate mode : Variable
Overall bit rate : 31.8 Mb/s
Encoded date : UTC 2020-10-16 00:01:22
Writing application : mkvmerge v51.0.0 ('I Wish') 64-bit
Writing library : libebml v1.4.0 + libmatroska v1.6.2

Video
ID : 1
Format : AVC
Format/Info : Advanced Video Codec
Format profile : High@L4.1
Format settings : CABAC / 4 Ref Frames
Format settings, CABAC : Yes
Format settings, Reference frames : 4 frames
Codec ID : V_MPEG4/ISO/AVC
Duration : 1 h 27 min
Bit rate mode : Variable
Bit rate : 29.8 Mb/s
Maximum bit rate : 38.0 Mb/s
Width : 1 920 pixels
Height : 1 080 pixels
Display aspect ratio : 16:9
Frame rate mode : Constant
Frame rate : 23.976 (24000/1001) FPS
Color space : YUV
Chroma subsampling : 4:2:0
Bit depth : 8 bits
Scan type : Progressive
Bits/(Pixel*Frame) : 0.600
Stream size : 18.3 GiB (94%)
Default : Yes
Forced : No

Audio
ID : 2
Format : DTS XLL
Format/Info : Digital Theater Systems
Commercial name : DTS-HD Master Audio
Codec ID : A_DTS
Duration : 1 h 27 min
Bit rate mode : Variable
Bit rate : 1 894 kb/s
Channel(s) : 6 channels
Channel layout : C L R Ls Rs LFE
Sampling rate : 48.0 kHz
Frame rate : 93.750 FPS (512 SPF)
Bit depth : 16 bits
Compression mode : Lossless
Stream size : 1.16 GiB (6%)
Title : English
Language : English
Default : Yes
Forced : No

Text #1
ID : 3
Format : PGS
Muxing mode : zlib
Codec ID : S_HDMV/PGS
Codec ID/Info : Picture based subtitle format used on BDs/HD-DVDs
Duration : 1 h 14 min
Bit rate : 4 300 b/s
Count of elements : 250
Stream size : 2.28 MiB (0%)
Title : English
Language : English
Default : Yes
Forced : No

Text #2
ID : 4
Format : PGS
Muxing mode : zlib
Codec ID : S_HDMV/PGS
Codec ID/Info : Picture based subtitle format used on BDs/HD-DVDs
Duration : 1 h 22 min
Bit rate : 44.6 kb/s
Count of elements : 2737
Stream size : 26.4 MiB (0%)
Title : English SDH
Language : English
Default : No
Forced : No

Text #3
ID : 5
Format : PGS
Muxing mode : zlib
Codec ID : S_HDMV/PGS
Codec ID/Info : Picture based subtitle format used on BDs/HD-DVDs
Duration : 1 h 26 min
Bit rate : 34.3 kb/s
Count of elements : 2517
Stream size : 21.2 MiB (0%)
Title : Danish
Language : Danish
Default : No
Forced : No

Text #4
ID : 6
Format : PGS
Muxing mode : zlib
Codec ID : S_HDMV/PGS
Codec ID/Info : Picture based subtitle format used on BDs/HD-DVDs
Duration : 1 h 26 min
Bit rate : 37.0 kb/s
Count of elements : 2593
Stream size : 22.9 MiB (0%)
Title : Finnish
Language : Finnish
Default : No
Forced : No

Text #5
ID : 7
Format : PGS
Muxing mode : zlib
Codec ID : S_HDMV/PGS
Codec ID/Info : Picture based subtitle format used on BDs/HD-DVDs
Duration : 1 h 26 min
Bit rate : 35.2 kb/s
Count of elements : 2595
Stream size : 21.8 MiB (0%)
Title : Icelandic
Language : Icelandic
Default : No
Forced : No

Text #6
ID : 8
Format : PGS
Muxing mode : zlib
Codec ID : S_HDMV/PGS
Codec ID/Info : Picture based subtitle format used on BDs/HD-DVDs
Duration : 1 h 26 min
Bit rate : 35.4 kb/s
Count of elements : 2575
Stream size : 22.0 MiB (0%)
Title : Norwegian
Language : Norwegian
Default : No
Forced : No

Text #7
ID : 9
Format : PGS
Muxing mode : zlib
Codec ID : S_HDMV/PGS
Codec ID/Info : Picture based subtitle format used on BDs/HD-DVDs
Duration : 1 h 26 min
Bit rate : 35.1 kb/s
Count of elements : 2573
Stream size : 21.8 MiB (0%)
Title : Swedish
Language : Swedish
Default : No
Forced : No

Menu
00:00:00.000 : en:Chapter 01
00:06:25.927 : en:Chapter 02
00:13:44.365 : en:Chapter 03
00:18:54.633 : en:Chapter 04
00:26:14.156 : en:Chapter 05
00:34:18.974 : en:Chapter 06
00:39:08.054 : en:Chapter 07
00:50:19.099 : en:Chapter 08
00:57:12.596 : en:Chapter 09
01:04:53.765 : en:Chapter 10
01:11:28.534 : en:Chapter 11
01:17:06.288 : en:Chapter 12


Manny 2014 1080p BluRay Remux AVC DTS-HD MA 5.1-PTer screenshotsManny 2014 1080p BluRay Remux AVC DTS-HD MA 5.1-PTer screenshotsManny 2014 1080p BluRay Remux AVC DTS-HD MA 5.1-PTer screenshotsManny 2014 1080p BluRay Remux AVC DTS-HD MA 5.1-PTer screenshotsManny 2014 1080p BluRay Remux AVC DTS-HD MA 5.1-PTer screenshotsManny 2014 1080p BluRay Remux AVC DTS-HD MA 5.1-PTer screenshots
TitleManny
Year2014
GenreDocumentary
Rating7.1 (2,160 votes)
PlotA man who overcame insurmountable odds to become one of the most loved and respected athletes of all time. From a starving teenager who fought to feed his family, to a Congressman working tirelessly to improve the lives of his people, Manny is a hard hitting feature length documentary film that explores the many triumphs and tribulations of Filipino boxing sensation Manny Pacquiao. Written by Anonymous
DirectorLeon Gast / Ryan Moore
CastsJimmy Kimmel / Sardo Mejia / Liam Neeson / Jinkee Pacquiao / Manny Pacquiao…
Runtime88 min
Manny

No keyword! (Click to edit!)

Turtle Odyssey 2018 1080p BluRay REMUX AVC DTS-X-EPSiLONWonderful World 3D 2015 1080p Blu-ray AVC DTS-HD MA 2.0-BDGRPNude 2017 720p WEB-DL H264 - STRiFEWhen Whales Walked A Deep Time Journey 2019 1080p AMZN WEB-DL DDP2 0 H 264-NTbChimpanzee 2012 1080p BluRay AAC5.1 x265-SilenceFastball 2016 1080p BluRay DTS x264-HDMaNiAcS