NetHD.org

Memories of the Sword 2015 720p HDRip MPA2.0 x264

Download Memories of the Sword 2015 720p HDRip MPA2.0 x264 
Small DescriptionKiếm Ký 2015
Basic Info
Uploaded byMaster (★ Nothing Is Impossible ★) at 2015-09-04 10:22:01
Action
Social
  • 0
Hot Meter
  • Views: 2814
  • Hits: 420
  • Snatched: 286 x time(s)
  • Last Action: 2019-01-02 12:52:48
Peers0 Seeder | 0 Leecher


Memories of the Sword 2015 720p HDRip MPA2.0 x264 screenshots


Tên phim: Memories of the Sword
Nước sản xuất: Hàn Quốc
Đạo diễn: Park Heung Sik
Kịch bản: Park Heung Sik, Choi A Reum
Nhà phát hành: Lotte Entertainment Ngày khởi chiếu: Hàn Quốc: 13/8/2015; Việt Nam: 18/9/2015
Thời lượng: 121 phút
Thể loại: Hành động - Tâm lý - Lịch sử
Các diễn viên chính:
Lee Byung Hun... Deok Gi
Jeon Do Yeon... Seol Rang
Kim Go Eun... Seol Hee

Nội dung:

Memories of the Sword (tên đầy đủ: Female Warrior: Memories of the Sword) là một bộ phim Hàn Quốc thuộc thể loại võ thuật cổ trang với sự tham gia của Jeon Do- yeon, Lee Byung-hun và Kim Go-eun, của đạo diễn Park Heung-shik. Câu chuyện trong phim được đặt vào thời kỳ trung cổ Hàn Quốc, khán giả sẽ theo chân một cô gái trẻ trên hành trình trả thù sự phản bội và cái chết của mẹ cô. Nhưng vì thế cô phải đối mặt với một trong những người kiếm sĩ mạnh nhất của triều đại Goryo


General
Unique ID : 218512167420590881111964327477074276585 (0xA463E9A317661A319CF1A399552530E9)
Complete name : 협녀, 칼의 기억.Memories of the Sword.2015.mkv
Format : Matroska
Format version : Version 2
File size : 2.96 GiB
Duration : 2h 0mn
Overall bit rate : 3 523 Kbps
Encoded date : UTC 2015-09-01 17:06:58
Writing application : mkvmerge v5.2.0 ('I can't explain') built on Dec 18 2011 18:12:03
Writing library : libebml v1.2.3 + libmatroska v1.3.0

Video
ID : 2
Format : AVC
Format/Info : Advanced Video Codec
Format profile : Baseline@L3.1
Format settings, CABAC : No
Format settings, ReFrames : 1 frame
Muxing mode : Header stripping
Codec ID : V_MPEG4/ISO/AVC
Duration : 2h 0mn
Bit rate : 3 197 Kbps
Width : 1 280 pixels
Height : 720 pixels
Display aspect ratio : 16:9
Frame rate mode : Constant
Frame rate : 24.000 fps
Color space : YUV
Chroma subsampling : 4:2:0
Bit depth : 8 bits
Scan type : Progressive
Bits/(Pixel*Frame) : 0.145
Stream size : 2.69 GiB (91%)
Default : Yes
Forced : No

Audio #1
ID : 1
Format : MPEG Audio
Format version : Version 2.5
Format profile : Layer 3
Muxing mode : Header stripping
Codec ID : A_MPEG/L3
Codec ID/Hint : MP3
Duration : 2h 0mn
Bit rate mode : Constant
Bit rate : 128 Kbps
Channel(s) : 1 channel
Sampling rate : 11.025 KHz
Compression mode : Lossy
Stream size : 110 MiB (4%)
Writing library : LAME3.93
Default : Yes
Forced : No

Audio #2
ID : 3
Format : MPEG Audio
Format version : Version 1
Format profile : Layer 3
Mode : Joint stereo
Mode extension : MS Stereo
Muxing mode : Header stripping
Codec ID : A_MPEG/L3
Codec ID/Hint : MP3
Duration : 2h 0mn
Bit rate mode : Constant
Bit rate : 128 Kbps
Channel(s) : 2 channels
Sampling rate : 44.1 KHz
Compression mode : Lossy
Stream size : 110 MiB (4%)
Writing library : LAME3.98.2
Default : No
Forced : No

Memories of the Sword 2015 720p HDRip MPA2.0 x264 screenshots Memories of the Sword 2015 720p HDRip MPA2.0 x264 screenshots Memories of the Sword 2015 720p HDRip MPA2.0 x264 screenshots Memories of the Sword 2015 720p HDRip MPA2.0 x264 screenshots


TitleKiem Ky
Year2015
Genre
Rating6.4 (1,496 votes)
PlotWhile the Goryo Dynasty in the medieval Korea, three warriors named Deok-ki, Poong-chun and Seol-rang have led a riot against the king and his foreign allies from Kitan, China. But Deok-ki betrays them, which results in the death of Poong-chun. But Seol-rang is able to escape with Seol-hee, Poong-chun's little daughter, and her sword. 18 years later, Seol-rang got blind but she raised and taught Seol-hee very well. Both feel that the time for revenge is right, but Deok-ki is now one of the most…
DirectorHeung-sik Park
CastsByung-Hun Lee,Go-eun Kim,Do-yeon Jeon,Su-an Kim,Kyeong-yeong Lee…
Runtime120 min
Genres
Kiem Ky


Judgment Night 1993 720p BluRay DTS X264-AMIABLEAmerican Ultra 2015 1080p BluRay DTS x264-CRiMEA Good Day to Die Hard 2013 mHD BluRay DD5.1 x264-TRiMFung bou 2013 1080p BluRay DD5.1 x264-LolHDBig Miracle 2012 1080p Blu-ray AVC DTS-HD MA 5.1-HDOThe Gifted S01E01 720p AMZN WEBRip DDP5.1 x264-AJP69

Only members can create comment.