NetHD.org

Mother's Friend 2015 720p HDRip MPA2.0 H.264-Unknown

Download Mother's Friend 2015 720p HDRip MPA2.0 H.264-Unknown 
Small Description
Basic Info
Uploaded byAnonymous at 2015-08-19 02:42:28
Action
Social
  • 0
Hot Meter
  • Views: 6712
  • Hits: 1688
  • Snatched: 59003 x time(s)
  • Last Action: 2019-03-22 20:48:54
Peers1 Seeder | 0 Leecher


Mother's Friend 2015 720p HDRip MPA2.0 H.264-Unknown screenshots


General
Complete name : 엄마친구 Mothers.Friend.2015.720p.HDRip.H264-Unknown.avi
Format : AVI
Format/Info : Audio Video Interleave
Format profile : OpenDML
File size : 1.99 GiB
Duration : 1h 21mn
Overall bit rate : 3 475 Kbps
Writing application : PotEncoder

Video
ID : 0
Format : MPEG-4 Visual
Format profile : Simple@L1
Format settings, BVOP : No
Format settings, QPel : No
Format settings, GMC : No warppoints
Format settings, Matrix : Default (H.263)
Codec ID : DIVX
Codec ID/Info : Project Mayo
Codec ID/Hint : DivX 4
Duration : 1h 21mn
Bit rate : 3 367 Kbps
Width : 1 280 pixels
Height : 720 pixels
Display aspect ratio : 16:9
Frame rate : 24.000 fps
Color space : YUV
Chroma subsampling : 4:2:0
Bit depth : 8 bits
Scan type : Progressive
Compression mode : Lossy
Bits/(Pixel*Frame) : 0.152
Stream size : 1.92 GiB (97%)
Writing library : Lavc52.108.0

Audio
ID : 1
Format : MPEG Audio
Format version : Version 1
Format profile : Layer 3
Mode : Joint stereo
Mode extension : MS Stereo
Codec ID : 55
Codec ID/Hint : MP3
Duration : 1h 21mn
Bit rate mode : Constant
Bit rate : 96.0 Kbps
Channel(s) : 2 channels
Sampling rate : 44.1 KHz
Compression mode : Lossy
Stream size : 56.2 MiB (3%)
Alignment : Aligned on interleaves
Interleave, duration : 26 ms (0.63 video frame)
Writing library : LAME3.98.2


Mother's Friend 2015 720p HDRip MPA2.0 H.264-Unknown screenshots Mother's Friend 2015 720p HDRip MPA2.0 H.264-Unknown screenshots Mother's Friend 2015 720p HDRip MPA2.0 H.264-Unknown screenshots
Mother's Friend 2015 720p HDRip MPA2.0 H.264-Unknown screenshots Mother's Friend 2015 720p HDRip MPA2.0 H.264-Unknown screenshots Mother's Friend 2015 720p HDRip MPA2.0 H.264-Unknown screenshots



Valkyrie 2008 Hybrid ViE mHD BluRay DD5.1 x264-TRiMThe Himalayas 2015 ViE 1080p WEB-DL H264 AC3-WEBHDRemember 2015 Hybrid 1080p BluRay DD5.1 x264-SA89III 2015 720p BluRay DD2.0 x264-VietHDAll Things Fall Apart 2011 mHD BluRay DD5.1 x264-TRiMTulip Fever 2017 720p BluRay DD5.1 x264-DON

Only members can create comment.