NetHD.org

My Girl ViE 720p HDTV x264-Leeso

Download My Girl ViE 720p HDTV x264-Leeso 
Small DescriptionCô em họ bất đắc dĩ là một bộ phim truyền hình Hàn Quốc 2005 với sự tham gia của diễn viên Lee Da-hae, Lee Dong-wook, Lee Joon-gi và Park Si-yeon. Phim chiếu trên SBS từ ngày 14 tháng 12 năm 2005 đến 2 tháng 2 năm 2006 vào mỗi thứ 4&5 lúc 21:55 gồm 16 tập. Full 16 tập thuyết minh Tiếng Việt
Basic Info
Uploaded byanhdao1520 (Elite User) at 2019-06-19 22:15:39
Action
Hot Meter
  • Views: 483
  • Hits: 34
  • Snatched: 18 x time(s)
  • Last Action: 2019-11-20 07:45:15
Peers1 Seeder | 0 Leecher



My Girl ViE 720p HDTV x264-Leeso screenshots




Quote
[justify]General
Unique ID                      : 192690703221923349888444993099175721241 (0x90F6E1292420384EA42C295C59DE7919)
Complete name                  : I:\My.Girl.720p.HDTV.x264\My.Girl.E01.720p.HDTV.x264-Leeso.mkv
Format                         : Matroska
Format version                 : Version 2
File size                      : 2.25 GiB
Duration                       : 1 h 9 min
Overall bit rate               : 4 650 kb/s
Encoded date                   : UTC 2009-08-03 14:37:22
Writing application            : mkvmerge v2.8.0 ('The Tree') built on May  9 2009 16:17:12
Writing library                : libebml v0.7.7 + libmatroska v0.8.1

Video
ID                             : 1
Format                         : AVC
Format/Info                    : Advanced Video Codec
Format profile                 : High@L4.1
Format settings, CABAC         : Yes
Format settings, RefFrames     : 8 frames
Codec ID                       : V_MPEG4/ISO/AVC
Duration                       : 1 h 9 min
Bit rate                       : 4 328 kb/s
Width                          : 1 280 pixels
Height                         : 720 pixels
Display aspect ratio           : 16:9
Frame rate mode                : Constant
Frame rate                     : 29.970 (30000/1001) FPS
Color space                    : YUV
Chroma subsampling             : 4:2:0
Bit depth                      : 8 bits
Scan type                      : Progressive
Bits/(Pixel*Frame)             : 0.157
Stream size                    : 2.05 GiB (91%)
Writing library                : x264 core 67 r1173M f6d3166
Encoding settings              : cabac=1 / ref=8 / deblock=1:-3:-3 / analyse=0x3:0x133 / me=umh / subme=9 / psy_rd=1.0:0.0 / mixed_ref=1 / me_range=32 / chroma_me=1 / trellis=1 / 8x8dct=1 / cqm=0 / deadzone=21,11 / chroma_qp_offset=-2 / threads=12 / nr=0 / decimate=0 / mbaff=0 / bframes=10 / b_pyramid=1 / b_adapt=1 / b_bias=0 / direct=3 / wpredb=1 / keyint=250 / keyint_min=25 / scenecut=40 / rc=2pass / bitrate=4328 / ratetol=1.0 / qcomp=0.60 / qpmin=10 / qpmax=51 / qpstep=4 / cplxblur=20.0 / qblur=0.5 / vbv_maxrate=45000 / vbv_bufsize=45000 / ip_ratio=1.40 / pb_ratio=1.30 / aq=1:1.00
Language                       : English
Default                        : Yes
Forced                         : No

Audio #1
ID                             : 2
Format                         : MPEG Audio
Format version                 : Version 1
Format profile                 : Layer 3
Mode                           : Joint stereo
Mode extension                 : MS Stereo
Codec ID                       : A_MPEG/L3
Codec ID/Hint                  : MP3
Duration                       : 1 h 9 min
Bit rate mode                  : Constant
Bit rate                       : 128 kb/s
Channel(s)                     : 2 channels
Sampling rate                  : 48.0 kHz
Compression mode               : Lossy
Stream size                    : 63.4 MiB (3%)
Writing library                : LAME3.98 (beta)
Language                       : Vietnamese
Default                        : Yes
Forced                         : No

Audio #2
ID                             : 3
Format                         : AC-3
Format/Info                    : Audio Coding 3
Format settings, Endianness    : Big
Codec ID                       : A_AC3
Duration                       : 1 h 9 min
Bit rate mode                  : Constant
Bit rate                       : 192 kb/s
Channel(s)                     : 2 channels
Channel positions              : Front: L R
Sampling rate                  : 48.0 kHz
Frame rate                     : 31.250 FPS (1536 SPF)
Bit depth                      : 16 bits
Compression mode               : Lossy
Delay relative to video        : 5 ms
Stream size                    : 95.0 MiB (4%)
Service kind                   : Complete Main
Default                        : No
Forced                         : No[/justify]




My Girl ViE 720p HDTV x264-Leeso screenshots



Quote
Joo Yoo Rin là một cô gái có biệt tài nói dối và giỏi nhiều ngoại ngữ Anh, Hoa Nhật. Seol Gong Chan là người kế thừa một tập đòan khách sạn lớn. Vì để cứu ông nội khỏi cơn bệnh nặng, Gong Chan đã yêu cầu Yoo Rin giả làm cô em họ để làm ông nội vui. Và chuyện này không một ai biết. Nhưng mọi chuyện lại bị Suh Jung Woo , người bạn thân của Gong Chan phát hiện. 
[justify]Nhưng Jung Woo quyết định không nói ra sự thật mà giữ kín cho hai người vì Jung Woo đã có tình cảm với Yoo Rin. Nhưng Yoo Rin lại bắt đầu có tình cảm với Gong Chan làm cho cả Yoo Rin và Jung Woo đều đau khổ. Nhưng đúng lúc này người bạn gái cũ của Gong Chan là Kim Se Hyun từ nước ngoài trở về với mong muốn nối lại quan hệ với Gong Chan...[/justify]





My Girl ViE 720p HDTV x264-Leeso screenshots

My Girl ViE 720p HDTV x264-Leeso screenshotsMy Girl ViE 720p HDTV x264-Leeso screenshotsMy Girl ViE 720p HDTV x264-Leeso screenshotsMy Girl ViE 720p HDTV x264-Leeso screenshotsMy Girl ViE 720p HDTV x264-Leeso screenshotsMy Girl ViE 720p HDTV x264-Leeso screenshots



My Girl ViE 720p HDTV x264-Leeso screenshots



TitleMai geol
Year2005
Genre
Rating7.8 (1,273 votes)
PlotA female con-artist, Joo Yoo-rin, finds herself in a predicament with a young rich man, Seol Gong-chan, which leads her to fall in love. But as she falls in love with him she also is intertwined in a love triangle with his cousin, Seo Jung-woo and ex-girlfriend, Kim Sae-hyun. Written by Colleen16
Directorn/A
CastsDa-hae Lee,Dong-Wook Lee,Joon-Gi Lee,Si-yeon Park,Suk-hwan Ahn…
Runtime60 min
Mai geol


Eleven Days, Eleven Nights 1987 mHD BluRay DD2.0 x264-TRiMMy Blueberry Nights 2007 720p BluRay x264-EbPIndochine 1992 1080p Blu-ray REMUX AVC DD5.1-HDCLUBMurder Mystery 2019 2160p NF WEBRip HEVC DD5.1 x265-TeamHDIn a Better World 2010 mHD BluRay DD5.1 x264-TRiMAloys 2016 720p BluRay DD5.1 x264-CtrlHD

Only members can create comment.