NetHD.org

Natalie 2010 1080p Bluray REMUX AVC DTS-HD MA 5.1-HDVN

Download Natalie 2010 1080p Bluray REMUX AVC DTS-HD MA 5.1-HDVN 
Small Description18+. Cân nhắc trước khi xem. Sub Việt
Basic Info
Uploaded byAnonymous at 2019-11-03 09:25:51
Action
Hot Meter
  • Views: 1357
  • Hits: 190
  • Snatched: 144 x time(s)
  • Last Action: 2019-11-22 21:58:01
Peers25 Seeder | 0 Leecher



Quote
General
Unique ID : 320614759107871996646244374177466150042 (0xF13428118D86F78AD8CEB5A713FDEC9A)
Complete name : Natalie.2010.1080p.Bluray.REMUX.AVC.DTS-HD.MA.5.1-HDVN.mkv
Format : Matroska
Format version : Version 4
File size : 17.1 GiB
Duration : 1 h 29 min
Overall bit rate mode : Variable
Overall bit rate : 27.2 Mb/s
Movie name : Natalie 2010 1080p Bluray REMUX AVC DTS-HD MA 5.1-HDVN
Encoded date : UTC 2019-11-02 19:35:54
Writing application : mkvmerge v38.0.0 ('The Silent Type') 64-bit
Writing library : libebml v1.3.9 + libmatroska v1.5.2

Video
ID : 1
Format : AVC
Format/Info : Advanced Video Codec
Format profile : High@L4.1
Format settings : CABAC / 4 Ref Frames
Format settings, CABAC : Yes
Format settings, Reference frames : 4 frames
Codec ID : V_MPEG4/ISO/AVC
Duration : 1 h 29 min
Bit rate mode : Variable
Bit rate : 23.6 Mb/s
Maximum bit rate : 35.0 Mb/s
Width : 1 920 pixels
Height : 1 080 pixels
Display aspect ratio : 16:9
Frame rate mode : Constant
Frame rate : 23.976 (24000/1001) FPS
Standard : NTSC
Color space : YUV
Chroma subsampling : 4:2:0
Bit depth : 8 bits
Scan type : Progressive
Bits/(Pixel*Frame) : 0.474
Stream size : 14.8 GiB (87%)
Title : 18+ Bluray REMUX Collection HDVN
Language : English
Default : No
Forced : No
Color range : Limited
Color primaries : BT.709
Transfer characteristics : BT.709
Matrix coefficients : BT.709

Audio #1
ID : 2
Format : DTS XLL
Format/Info : Digital Theater Systems
Commercial name : DTS-HD Master Audio
Codec ID : A_DTS
Duration : 1 h 29 min
Bit rate mode : Variable
Bit rate : 1 832 kb/s
Channel(s) : 6 channels
Channel layout : C L R Ls Rs LFE
Sampling rate : 48.0 kHz
Frame rate : 93.750 FPS (512 SPF)
Bit depth : 16 bits
Compression mode : Lossless
Stream size : 1.15 GiB (7%)
Title : Surround 5.1
Language : Korean
Default : Yes
Forced : No

Audio #2
ID : 3
Format : DTS XLL
Format/Info : Digital Theater Systems
Commercial name : DTS-HD Master Audio
Codec ID : A_DTS
Duration : 1 h 29 min
Bit rate mode : Variable
Bit rate : 1 819 kb/s
Channel(s) : 6 channels
Channel layout : C L R Ls Rs LFE
Sampling rate : 48.0 kHz
Frame rate : 93.750 FPS (512 SPF)
Bit depth : 16 bits
Compression mode : Lossless
Stream size : 1.14 GiB (7%)
Title : Cantonese - Surround 5.1
Language : Chinese
Default : No
Forced : No

Text #1
ID : 4
Format : PGS
Muxing mode : zlib
Codec ID : S_HDMV/PGS
Codec ID/Info : Picture based subtitle format used on BDs/HD-DVDs
Duration : 1 h 21 min
Bit rate : 15.8 kb/s
Count of elements : 1044
Stream size : 9.21 MiB (0%)
Language : Chinese
Default : No
Forced : No

Text #2
ID : 5
Format : PGS
Muxing mode : zlib
Codec ID : S_HDMV/PGS
Codec ID/Info : Picture based subtitle format used on BDs/HD-DVDs
Duration : 1 h 21 min
Bit rate : 15.5 kb/s
Count of elements : 1044
Stream size : 9.06 MiB (0%)
Language : Chinese
Default : No
Forced : No

Text #3
ID : 6
Format : PGS
Muxing mode : zlib
Codec ID : S_HDMV/PGS
Codec ID/Info : Picture based subtitle format used on BDs/HD-DVDs
Duration : 1 h 21 min
Bit rate : 16.0 kb/s
Count of elements : 1042
Stream size : 9.28 MiB (0%)
Language : English
Default : No
Forced : No

Text #4
ID : 7
Format : UTF-8
Codec ID : S_TEXT/UTF8
Codec ID/Info : UTF-8 Plain Text
Duration : 1 h 24 min
Bit rate : 30 b/s
Count of elements : 467
Stream size : 18.8 KiB (0%)
Language : Vietnamese
Default : Yes
Forced : Yes

Menu
00:00:00.000 : en:Chapter 01
00:07:03.089 : en:Chapter 02
00:14:48.637 : en:Chapter 03
00:21:49.099 : en:Chapter 04
00:33:17.662 : en:Chapter 05
00:41:34.116 : en:Chapter 06
00:46:49.515 : en:Chapter 07
00:52:58.383 : en:Chapter 08
01:01:18.508 : en:Chapter 09
01:10:09.955 : en:Chapter 10
01:16:38.719 : en:Chapter 11
01:22:26.942 : en:Chapter 12
01:29:46.130 : en:Chapter 13


Natalie 2010 1080p Bluray REMUX AVC DTS-HD MA 5.1-HDVN screenshots Natalie 2010 1080p Bluray REMUX AVC DTS-HD MA 5.1-HDVN screenshots
Natalie 2010 1080p Bluray REMUX AVC DTS-HD MA 5.1-HDVN screenshots Natalie 2010 1080p Bluray REMUX AVC DTS-HD MA 5.1-HDVN screenshots
TitleNatali
Year2010
Genre
Rating4.7 (377 votes)
Plotn/A
DirectorKyung-jung Joo
CastsJi-hoon Kim,Ki-yeon Kim,Seong-jae Lee,Hyeon-jin Park
Runtime90 min
Natali


The Squid and the Whale 2005 720p BluRay DD5.1 x264-BMDruSyngué sabour, pierre de patience 2012 mHD BluRay DD5.1 x264-TRiMSecret 2007 ViE mHD Bluray DD5.1 x264Donnybrook 2018 1080p Blu-ray AVC DTS-HD MA5.1-MTeamLittle Men 2016 1080p WEB-DL DD5.1 H.264-FGTKidulthood 2006 720p BluRay DD5.1 x264-RightSiZE

Only members can create comment.