Nurse Jackie 2009 COMPLETE S01-S07 1080p BluRay HEVC 10bit AAC 7.1 x265 -Pand

Download Nurse Jackie 2009 COMPLETE S01-S07 1080p BluRay HEVC 10bit AAC 7.1 x265 -Pand Free
Small Description18+
Basic Info
Uploaded byAnonymous at 2018-12-04 04:21:24
Action
Social
  • 11
Hot Meter
  • Views: 1431
  • Hits: 204
  • Snatched: 81 x time(s)
  • Last Action: 2018-12-17 09:12:24
Peers30 Seeder | 1 Leecher
Nurse Jackie 2009 COMPLETE S01-S07 1080p BluRay HEVC 10bit AAC 7.1 x265 -Pand screenshots




Quote
General
Unique ID                                : 284201541726934087448537448702071926910 (0xD5CF39D78CF83172A2DA3FB9695DF07E)
Complete name                            : D:\Season 5\Nurse Jackie (2009) - S05E01 - Happy Fucking Birthday (1080p BluRay x265 Panda).mkv
Format                                   : Matroska
Format version                           : Version 4
File size                                : 859 MiB
Duration                                 : 28 min 15 s
Overall bit rate                         : 4 251 kb/s
Encoded date                             : UTC 2018-11-15 21:35:15
Writing application                      : mkvmerge v20.0.0 ('I Am The Sun') 64-bit
Writing library                          : libebml v1.3.5 + libmatroska v1.4.8
Writing frontend                         : StaxRip v1.7.0.6

Video
ID                                       : 1
Format                                   : HEVC
Format/Info                              : High Efficiency Video Coding
Format profile                           : Main 10@L4@Main
Codec ID                                 : V_MPEGH/ISO/HEVC
Duration                                 : 28 min 15 s
Bit rate                                 : 3 740 kb/s
Width                                    : 1 920 pixels
Height                                   : 1 080 pixels
Display aspect ratio                     : 16:9
Frame rate mode                          : Constant
Frame rate                               : 23.976 (24000/1001) FPS
Color space                              : YUV
Chroma subsampling                       : 4:2:0
Bit depth                                : 10 bits
Bits/(Pixel*Frame)                       : 0.075
Stream size                              : 756 MiB (88%)
Writing library                          : x265 2.8+66-88ee12651e30:[Windows][MSVC 1915][64 bit] 10bit
Encoding settings                        : cpuid=1111039 / frame-threads=2 / numa-pools=4 / wpp / no-pmode / no-pme / no-psnr / no-ssim / log-level=2 / input-csp=1 / input-res=1920x1080 / interlace=0 / total-frames=40652 / level-idc=0 / high-tier=1 / uhd-bd=0 / ref=4 / no-allow-non-conformance / no-repeat-headers / annexb / no-aud / no-hrd / info / hash=0 / no-temporal-layers / open-gop / min-keyint=23 / keyint=250 / gop-lookahead=0 / bframes=8 / b-adapt=2 / b-pyramid / bframe-bias=0 / rc-lookahead=80 / lookahead-slices=0 / scenecut=40 / radl=0 / no-intra-refresh / ctu=64 / min-cu-size=8 / no-rect / no-amp / max-tu-size=32 / tu-inter-depth=1 / tu-intra-depth=1 / limit-tu=0 / rdoq-level=2 / dynamic-rd=0.00 / no-ssim-rd / signhide / no-tskip / nr-intra=0 / nr-inter=0 / no-constrained-intra / no-strong-intra-smoothing / max-merge=3 / limit-refs=3 / limit-modes / me=3 / subme=5 / merange=57 / temporal-mvp / weightp / no-weightb / no-analyze-src-pics / deblock=-3:-3 / no-sao / no-sao-non-deblock / rd=4 / no-early-skip / rskip / no-fast-intra / no-tskip-fast / no-cu-lossless / no-b-intra / no-splitrd-skip / rdpenalty=0 / psy-rd=2.00 / psy-rdoq=1.70 / no-rd-refine / no-lossless / cbqpoffs=0 / crqpoffs=0 / rc=abr / bitrate=3750 / qcomp=0.60 / qpstep=4 / stats-write=0 / stats-read=2 / cplxblur=20.0 / qblur=0.5 / ipratio=1.40 / pbratio=1.30 / aq-mode=3 / aq-strength=1.00 / cutree / zone-count=0 / no-strict-cbr / qg-size=32 / no-rc-grain / qpmax=69 / qpmin=0 / no-const-vbv / sar=0 / overscan=0 / videoformat=5 / range=0 / colorprim=2 / transfer=2 / colormatrix=2 / chromaloc=0 / display-window=0 / max-cll=0,0 / min-luma=0 / max-luma=1023 / log2-max-poc-lsb=8 / vui-timing-info / vui-hrd-info / slices=1 / no-opt-qp-pps / no-opt-ref-list-length-pps / no-multi-pass-opt-rps / scenecut-bias=0.05 / no-opt-cu-delta-qp / no-aq-motion / no-hdr / no-hdr-opt / no-dhdr10-opt / no-idr-recovery-sei / analysis-reuse-level=5 / scale-factor=0 / refine-intra=0 / refine-inter=0 / refine-mv=0 / no-limit-sao / ctu-info=0 / no-lowpass-dct / refine-mv-type=0 / copy-pic=1 / max-ausize-factor=1.0 / no-dynamic-refine / no-single-sei
Default                                  : Yes
Forced                                   : No

Audio
ID                                       : 2
Format                                   : AAC LC
Format/Info                              : Advanced Audio Codec Low Complexity
Codec ID                                 : A_AAC-2
Duration                                 : 28 min 15 s
Bit rate                                 : 480 kb/s
Channel(s)                               : 8 channels
Channel layout                           : C L R Ls Rs Rls Rb LFE
Sampling rate                            : 48.0 kHz
Frame rate                               : 46.875 FPS (1024 SPF)
Compression mode                         : Lossy
Delay relative to video                  : 20 ms
Stream size                              : 96.9 MiB (11%)
Language                                 : English
Default                                  : Yes
Forced                                   : No

Text #1
ID                                       : 3
Format                                   : PGS
Muxing mode                              : zlib
Codec ID                                 : S_HDMV/PGS
Codec ID/Info                            : Picture based subtitle format used on BDs/HD-DVDs
Duration                                 : 27 min 8 s
Bit rate                                 : 49.2 kb/s
Count of elements                        : 888
Stream size                              : 9.56 MiB (1%)
Language                                 : English
Default                                  : No
Forced                                   : No

Text #2
ID                                       : 4
Format                                   : PGS
Muxing mode                              : zlib
Codec ID                                 : S_HDMV/PGS
Codec ID/Info                            : Picture based subtitle format used on BDs/HD-DVDs
Duration                                 : 27 min 8 s
Bit rate                                 : 51.4 kb/s
Count of elements                        : 922
Stream size                              : 9.98 MiB (1%)
Language                                 : English
Default                                  : No
Forced                                   : No




Nurse Jackie 2009 COMPLETE S01-S07 1080p BluRay HEVC 10bit AAC 7.1 x265 -Pand screenshots Nurse Jackie 2009 COMPLETE S01-S07 1080p BluRay HEVC 10bit AAC 7.1 x265 -Pand screenshots Nurse Jackie 2009 COMPLETE S01-S07 1080p BluRay HEVC 10bit AAC 7.1 x265 -Pand screenshots

Nurse Jackie 2009 COMPLETE S01-S07 1080p BluRay HEVC 10bit AAC 7.1 x265 -Pand screenshots Nurse Jackie 2009 COMPLETE S01-S07 1080p BluRay HEVC 10bit AAC 7.1 x265 -Pand screenshots Nurse Jackie 2009 COMPLETE S01-S07 1080p BluRay HEVC 10bit AAC 7.1 x265 -Pand screenshots

Nurse Jackie 2009 COMPLETE S01-S07 1080p BluRay HEVC 10bit AAC 7.1 x265 -Pand screenshots Nurse Jackie 2009 COMPLETE S01-S07 1080p BluRay HEVC 10bit AAC 7.1 x265 -Pand screenshots Nurse Jackie 2009 COMPLETE S01-S07 1080p BluRay HEVC 10bit AAC 7.1 x265 -Pand screenshots

TitleNurse Jackie
Year2009
Genre
Rating7.7 (22,261 votes)
Plotn/A
Directorn/A
CastsEdie Falco,Merritt Wever,Paul Schulze,Dominic Fumusa,Ruby Jerins…
Runtime27 min
Genres
Nurse Jackie


Tags

Other releases

Same genre with Nurse Jackie 2009 COMPLETE S01-S07 1080p BluRay HEVC 10bit AAC 7.1 x265 -Pand

Noblesse Oblige TVB 2015 E19-E20End HD1080P MKV AC3Hoa Khôi Cảnh Viên 2015 (20 EPS) USLTThe Tomorrow People Season 1 2013 1080p WEB-DL DD5.1 H.264-ECIBreaking Bad S05 Part 2 RePack 1080p BluRay DTS x264-NTbLilyhammer S01 720p BluRay DD5.1 x264-NorTVFear the Walking Dead S03 720p HDTV x264-Scene

Comment for Nurse Jackie 2009 COMPLETE S01-S07 1080p BluRay HEVC 10bit AAC 7.1 x265 -Pand

Only members can create comment.