Pacific Rim: Uprising 2018 1080p BluRay DD5.1 x264-GECKOS

Download Pacific Rim: Uprising 2018 1080p BluRay DD5.1 x264-GECKOS 
Small Description
Basic Info
Uploaded byAnonymous at 2018-06-07 09:53:52
Action
Social
  • 10
Hot Meter
  • Views: 1002
  • Hits: 234
  • Snatched: 191 x time(s)
  • Last Action: 2018-08-15 04:48:41
Peers16 Seeder | 0 Leecher
Pacific Rim: Uprising 2018 1080p BluRay DD5.1 x264-GECKOS screenshots











Pacific Rim: Uprising 2018 1080p BluRay DD5.1 x264-GECKOS screenshots


General
Unique ID                                : 190830517362612783633384410456687473029 (0x8F909EEABA3939C0B034E64714717185)
Complete name                            : E:\COLLECTION\Pacific.Rim.Uprising.2018.1080p.BluRay.x264-GECKOS.mkv
Format                                   : Matroska
Format version                           : Version 4 / Version 2
File size                                : 7.65 GiB
Duration                                 : 1 h 50 min
Overall bit rate                         : 9 893 kb/s
Encoded date                             : UTC 2018-06-07 00:27:47
Writing application                      : mkvmerge v8.3.0 ('Over the Horizon') 64bit
Writing library                          : libebml v1.3.1 + libmatroska v1.4.2

Video
ID                                       : 1
Format                                   : AVC
Format/Info                              : Advanced Video Codec
Format profile                           : High@L4.1
Format settings                          : CABAC / 5 Ref Frames
Format settings, CABAC                   : Yes
Format settings, RefFrames               : 5 frames
Codec ID                                 : V_MPEG4/ISO/AVC
Duration                                 : 1 h 50 min
Bit rate                                 : 9 255 kb/s
Width                                    : 1 920 pixels
Height                                   : 800 pixels
Display aspect ratio                     : 2.40:1
Frame rate mode                          : Constant
Frame rate                               : 23.976 FPS
Color space                              : YUV
Chroma subsampling                       : 4:2:0
Bit depth                                : 8 bits
Scan type                                : Progressive
Bits/(Pixel*Frame)                       : 0.251
Stream size                              : 7.00 GiB (92%)
Writing library                          : x264 core 155 r2901 7d0ff22
Encoding settings                        : cabac=1 / ref=5 / deblock=1:0:0 / analyse=0x3:0x133 / me=umh / subme=7 / psy=1 / psy_rd=1.00:0.00 / mixed_ref=1 / me_range=16 / chroma_me=1 / trellis=1 / 8x8dct=1 / cqm=0 / deadzone=21,11 / fast_pskip=0 / chroma_qp_offset=-2 / threads=25 / lookahead_threads=4 / sliced_threads=0 / nr=0 / decimate=1 / interlaced=0 / bluray_compat=0 / constrained_intra=0 / bframes=3 / b_pyramid=2 / b_adapt=1 / b_bias=0 / direct=1 / weightb=1 / open_gop=0 / weightp=2 / keyint=250 / keyint_min=23 / scenecut=40 / intra_refresh=0 / rc_lookahead=40 / rc=2pass / mbtree=1 / bitrate=9255 / ratetol=1.0 / qcomp=0.60 / qpmin=0 / qpmax=69 / qpstep=4 / cplxblur=20.0 / qblur=0.5 / ip_ratio=1.40 / aq=1:1.00
Language                                 : English
Default                                  : Yes
Forced                                   : No

Audio
ID                                       : 2
Format                                   : AC-3
Format/Info                              : Audio Coding 3
Codec ID                                 : A_AC3
Duration                                 : 1 h 50 min
Bit rate mode                            : Constant
Bit rate                                 : 640 kb/s
Channel(s)                               : 6 channels
Channel positions                        : Front: L C R, Side: L R, LFE
Sampling rate                            : 48.0 kHz
Frame rate                               : 31.250 FPS (1536 SPF)
Bit depth                                : 16 bits
Compression mode                         : Lossy
Stream size                              : 507 MiB (6%)
Language                                 : English
Service kind                             : Complete Main
Default                                  : Yes
Forced                                   : No

Menu
00:00:00.000                             : en:00:00:00.000
00:06:54.873                             : en:00:06:54.873
00:13:05.368                             : en:00:13:05.368
00:15:51.075                             : en:00:15:51.075
00:20:36.360                             : en:00:20:36.360
00:24:49.697                             : en:00:24:49.697
00:31:08.241                             : en:00:31:08.241
00:37:56.065                             : en:00:37:56.065
00:43:37.949                             : en:00:43:37.949
00:49:01.939                             : en:00:49:01.939
00:53:40.926                             : en:00:53:40.926
00:58:12.030                             : en:00:58:12.030
01:04:45.006                             : en:01:04:45.006
01:09:25.536                             : en:01:09:25.536
01:14:36.722                             : en:01:14:36.722
01:22:53.427                             : en:01:22:53.427
01:29:02.546                             : en:01:29:02.546
01:33:10.585                             : en:01:33:10.585
01:38:07.381                             : en:01:38:07.381
01:40:55.049                             : en:01:40:55.049











Pacific Rim: Uprising 2018 1080p BluRay DD5.1 x264-GECKOS screenshots


Pacific Rim: Uprising 2018 1080p BluRay DD5.1 x264-GECKOS screenshotsPacific Rim: Uprising 2018 1080p BluRay DD5.1 x264-GECKOS screenshotsPacific Rim: Uprising 2018 1080p BluRay DD5.1 x264-GECKOS screenshots Pacific Rim: Uprising 2018 1080p BluRay DD5.1 x264-GECKOS screenshotsPacific Rim: Uprising 2018 1080p BluRay DD5.1 x264-GECKOS screenshotsPacific Rim: Uprising 2018 1080p BluRay DD5.1 x264-GECKOS screenshots

TitlePacific Rim: Troi Day
Year2018
GenreAction / Adventure / Sci-Fi
Rating5.7 (66,370 votes)
Plotn/A
DirectorSteven S. DeKnight
CastsJohn Boyega / Scott Eastwood / Cailee Spaeny / Burn Gorman / Charlie Day…
Runtime111 min
GenresAction / Adventure / Sci-Fi
Pacific Rim: Troi Day


Tags

Other releases

Same genre with Pacific Rim: Uprising 2018 1080p BluRay DD5.1 x264-GECKOS

Officer Downe 2016 mHD Bluray DD5.1 x264-TRiMAvengers: Infinity War 2018 SUBBED mHD Bluray DD5.1 x264-JadViEIp Man 2008 1080p BluRay DTS x264-ORiGEN The Voices 2014 720p BluRay DD5.1 x264-VietHDSorceress (1982) 1080p BrRip x264 - YIFYHoovey 2015 720p BluRay DD5.1 x264-CRiME

Comment for Pacific Rim: Uprising 2018 1080p BluRay DD5.1 x264-GECKOS

Only members can create comment.