Paris By Night 80: Tết Khắp Mọi Nhà 2005 NTSC DVD9

Download Paris By Night 80: Tết Khắp Mọi Nhà 2005 NTSC DVD9 Free
Small Description
Basic Info
Uploaded byAnonymous at 2017-06-22 11:11:14
Action
Social
  • 5
Hot Meter
  • Views: 542
  • Hits: 54
  • Snatched: 20 x time(s)
  • Last Action: 2018-07-30 20:38:54
Peers0 Seeder | 0 Leecher
Disc 1

01. Introduction: Múa Lân

02. Xuân Quê Ta (Nhật Trung) - Như Quỳnh, Tâm Đoan, Lương Tùng Quang & Thế Sơn

03. Mưa Xuân (Đức Thịnh) - Minh Tuyết

04. Nhớ Một Chiều Xuân (Nguyễn Văn Đông) - Trần Thái Hòa

05. Xuân Về Trên Môi Em (Huỳnh Nhật Tân) - Bảo Hân, Như Loan & Tú Quyên

06. Tâm Sự Ngày Xuân (Hoài An) - Tâm Đoan

07. Mừng Tuổi Mẹ (Trần Long Ẩn) - Quang Lê

08. Cánh Bướm Vườn Xuân (Nhạc Ngoại Quốc, Lời Việt: Phạm Duy) - Hồ Lệ Thu

09. Rước Xuân Về Nhà (Nhật Ngân) - Ngọc Liên

10. Chuyện Ngày Cuối Năm (Song Ngọc) - Trường Vũ

11. Hài Kịch: Thà Ăn Mày Hơn Ăn Cướp (Nhóm Kịch Thúy Nga) - Hoài Linh & Trang Thanh Lan

12. Liên Khúc:

    Mùa Xuân Ơi (Nguyễn Ngọc Thiện)
    Ngày Tết Quê Em (Tú Huy)

- Bé Xuân Mai

13. Tân Cổ: Cánh Thiệp Đầu Xuân (Nhạc và Lời: Minh Kỳ & Lê Dinh) - Hương Lan

14. Mùa Xuân Lá Khô (Trần Thiện Thanh) - Mạnh Quỳnh
Disc 2

15. Mộng Chiều Xuân (Ngọc Bích) (MTV) - Loan Châu

16. Đoản Xuân Ca (Thanh Sơn) - Hương Thủy

17. Mai Lệ Xuân (Song Ngọc & Hoài Linh) - Thế Sơn

18. Tình Em Mùa Xuân (Trường Huy) - Nhật Trung & La Sương Sương

19. Xuân Mong Chờ (Lời Việt: Minh Châu) - Như Quỳnh

20. Hài Kịch: Lương Sơn Bá, Chúc Anh Đài (Nhóm Kịch Thúy Nga) - Hoài Linh, Chí Tài & Bé Tí

21. Mùa Xuân Trở Về (Võ Thiện Thanh) - Lương Tùng Quang & Bảo Hân

22. Mùa Xuân Đang Đến (Quốc Hùng) - Lưu Bích

23. Em Là Xuân Về (Bảo Chấn) - Thủy Tiên

24. Hãy Mang Đến Những Mùa Xuân (Nguyễn Đức Trung) - Nguyễn Hưng

25. Lắng Nghe Mùa Xuân Về (Dương Thu) - Bằng Kiều

26. Dáng Xuân (Minh Châu) - Dương Triệu Vũ

27. Liên Khúc:

    Xuân Vui Ca (Nguyễn Hiền)
    Chúc Mừng Xuân (Thanh Sơn)

- Bảo Hân, Như Loan, Hồ Lệ Thu, Minh Tuyết, La Sương Sương, Tâm Đoan, Ngọc Liên & Tú Quyên

28. Nàng Xuân Chung Tình - Vũ Linh


BONUS

27. Bonus Song: Lie Under My Bed (Adam Hồ) (MTV) - Adam Hồ

    Behind The Scenes (Hậu Trường Sân Khấu)

Paris By Night 80: Tết Khắp Mọi Nhà 2005 NTSC DVD9 screenshotsParis By Night 80: Tết Khắp Mọi Nhà 2005 NTSC DVD9 screenshotsParis By Night 80: Tết Khắp Mọi Nhà 2005 NTSC DVD9 screenshotsParis By Night 80: Tết Khắp Mọi Nhà 2005 NTSC DVD9 screenshots

Paris By Night 80: Tết Khắp Mọi Nhà 2005 NTSC DVD9 screenshotsParis By Night 80: Tết Khắp Mọi Nhà 2005 NTSC DVD9 screenshotsParis By Night 80: Tết Khắp Mọi Nhà 2005 NTSC DVD9 screenshotsParis By Night 80: Tết Khắp Mọi Nhà 2005 NTSC DVD9 screenshots

Paris By Night 80: Tết Khắp Mọi Nhà 2005 NTSC DVD9 screenshotsParis By Night 80: Tết Khắp Mọi Nhà 2005 NTSC DVD9 screenshotsParis By Night 80: Tết Khắp Mọi Nhà 2005 NTSC DVD9 screenshotsParis By Night 80: Tết Khắp Mọi Nhà 2005 NTSC DVD9 screenshots

Paris By Night 80: Tết Khắp Mọi Nhà 2005 NTSC DVD9 screenshotsParis By Night 80: Tết Khắp Mọi Nhà 2005 NTSC DVD9 screenshotsParis By Night 80: Tết Khắp Mọi Nhà 2005 NTSC DVD9 screenshotsParis By Night 80: Tết Khắp Mọi Nhà 2005 NTSC DVD9 screenshots


General
Complete name               : F:\VIDEO_TS\VTS_01_1.VOB
Format                      : MPEG-PS
File size                   : 1 024 MiB
Duration                    : 20 min 11 s
Overall bit rate mode       : Variable
Overall bit rate            : 7 088 kb/s
Writing library             : encoded by TMPGEnc (ver. 2.524.63.181)

Video
ID                          : 224 (0xE0)
Format                      : MPEG Video
Format version              : Version 2
Format profile              : Main@Main
Format settings, BVOP       : Yes
Format settings, Matrix     : Custom
Format settings, GOP        : Variable
Duration                    : 20 min 11 s
Bit rate mode               : Variable
Bit rate                    : 6 051 kb/s
Width                       : 720 pixels
Height                      : 480 pixels
Display aspect ratio        : 16:9
Frame rate                  : 29.970 (30000/1001) FPS
Standard                    : NTSC
Color space                 : YUV
Chroma subsampling          : 4:2:0
Bit depth                   : 8 bits
Compression mode            : Lossy
Bits/(Pixel*Frame)          : 0.584
Stream size                 : 874 MiB (85%)
Writing library             : TMPGEnc 2.524.63.181
Color primaries             : BT.601 NTSC
Transfer characteristics    : BT.601
Matrix coefficients         : BT.601

Audio #1
ID                          : 189 (0xBD)-128 (0x80)
Format                      : AC-3
Format/Info                 : Audio Coding 3
Format settings, Endianness : Big
Muxing mode                 : DVD-Video
Duration                    : 19 min 28 s
Bit rate mode               : Constant
Bit rate                    : 448 kb/s
Channel(s)                  : 2 channels
Channel positions           : Front: L R
Sampling rate               : 48.0 kHz
Frame rate                  : 31.250 FPS (1536 spf)
Bit depth                   : 16 bits
Compression mode            : Lossy
Delay relative to video     : 42 s 876 ms
Stream size                 : 62.4 MiB (6%)
Service kind                : Complete Main

Audio #2
ID                          : 189 (0xBD)-129 (0x81)
Format                      : AC-3
Format/Info                 : Audio Coding 3
Format settings, Endianness : Big
Muxing mode                 : DVD-Video
Duration                    : 19 min 28 s
Bit rate mode               : Constant
Bit rate                    : 448 kb/s
Channel(s)                  : 6 channels
Channel positions           : Front: L C R, Side: L R, LFE
Sampling rate               : 48.0 kHz
Frame rate                  : 31.250 FPS (1536 spf)
Bit depth                   : 16 bits
Compression mode            : Lossy
Delay relative to video     : 42 s 942 ms
Stream size                 : 62.4 MiB (6%)
Service kind                : Complete Main

Menu



Tags

Other releases

Same genre with Paris By Night 80: Tết Khắp Mọi Nhà 2005 NTSC DVD9

Asia 78 - Tình Yêu & Thân Phận 2016 1080p BluRay DD2.0 x264-EbPThuy Nga Paris by Night 112 Dong 720p BluRay AC3 x264-EbPGala Nhạc Việt 11 - Về Nhà Đón Tết​ (2018) NTSC 2xDVD9Thalia - Primera Fila 2010 1080p Blu-ray AVC DD5.1 LPCM-Sony MusicParis By Night 94: 25th Anniversary 2008 NTSC DVD9Paris By Night 96: Nhạc Yêu Cầu 2 2009 NTSC DVD9

Comment for Paris By Night 80: Tết Khắp Mọi Nhà 2005 NTSC DVD9

Only members can create comment.