NetHD.org

Peaky Blinders S03E03 720p HDTV x264-FoV

Download Peaky Blinders S03E03 720p HDTV x264-FoV 
Small Description
Basic Info
Uploaded bydpc (Uploader) at 2016-05-20 08:55:50
Action
Social
  • 0
Hot Meter
  • Views: 388
  • Hits: 14
  • Snatched: 6 x time(s)
  • Last Action: 2018-12-13 16:19:55
Peers0 Seeder | 0 Leecher


Peaky Blinders S03E03 720p HDTV x264-FoV screenshots


Ngày phát hành: 12/09/2013
Điểm IMDb: 8.8 Top 250 TV #88
Đạo diễn: Otto Bathurst
Kịch bản: Steven Knight
Diễn viên chính: Paul Anderson, Sam Neill, Cillian Murphy
Quốc gia: Anh
Thể loại: Tâm lý

Được đặt trong bối cảnh nước Anh đầu thế kỷ 19, Peaky Blinders nói về gia đình Shelby, những người cầm đầu băng đảng Peaky Blinders khét tiếng trong thế giới ngầm với bộ não là Tommy Shelby, đứa con trai thứ hai. Bộ phim là hành trình thăng tiến trong thế giới ngầm của Tommy bằng những mưu mô, thủ đoạn tàn nhẫn. Ngoài ra, người xem cũng sẽ được gặp lại nhiều nhân vật và sự kiện lịch sử có thật như Winston Churchill, cuộc kháng chiến đòi độc lập của Ai-len với Anh Quốc...



Peaky Blinders S03E03 720p HDTV x264-FoV screenshots


Quote
General
Unique ID                                : 190792450149285834332127582580400858171 (0x8F894A0EF21340BDB7AB05DE7042243B)
Complete name                            : S:\Peaky.Blinders.S03E03.720p.HDTV.x264-FoV\peaky_blinders.3x03.720p_hdtv_x264-fov.mkv
Format                                   : Matroska
Format version                           : Version 2
File size                                : 871 MiB
Duration                                 : 58mn 13s
Overall bit rate                         : 2 092 Kbps
Writing application                      : Stupid Ocelot
Writing library                          : Stupid Ocelot

Video
ID                                       : 1
Format                                   : AVC
Format/Info                              : Advanced Video Codec
Format profile                           : High@L4.1
Format settings, CABAC                   : Yes
Format settings, ReFrames                : 5 frames
Codec ID                                 : V_MPEG4/ISO/AVC
Duration                                 : 58mn 13s
Bit rate                                 : 1 858 Kbps
Width                                    : 1 280 pixels
Height                                   : 694 pixels
Display aspect ratio                     : 1.85:1
Frame rate mode                          : Constant
Frame rate                               : 25.000 fps
Color space                              : YUV
Chroma subsampling                       : 4:2:0
Bit depth                                : 8 bits
Scan type                                : Progressive
Bits/(Pixel*Frame)                       : 0.084
Stream size                              : 774 MiB (89%)
Writing library                          : x264 core 148 r2692 64f4e24
Encoding settings                        : opencl=1 / cabac=1 / ref=5 / deblock=1:0:0 / analyse=0x3:0x113 / me=umh / subme=8 / psy=1 / psy_rd=1.00:0.00 / mixed_ref=1 / me_range=16 / chroma_me=1 / trellis=1 / 8x8dct=1 / cqm=0 / deadzone=21,11 / fast_pskip=1 / chroma_qp_offset=-2 / threads=18 / lookahead_threads=3 / sliced_threads=0 / nr=0 / decimate=1 / interlaced=0 / bluray_compat=0 / constrained_intra=0 / bframes=3 / b_pyramid=2 / b_adapt=2 / b_bias=0 / direct=3 / weightb=1 / open_gop=0 / weightp=2 / keyint=250 / keyint_min=25 / scenecut=40 / intra_refresh=0 / rc_lookahead=50 / rc=crf / mbtree=1 / crf=18.0 / qcomp=0.60 / qpmin=0 / qpmax=69 / qpstep=4 / ip_ratio=1.40 / aq=1:1.00
Language                                 : English
Default                                  : Yes
Forced                                   : No

Audio
ID                                       : 2
Format                                   : AC-3
Format/Info                              : Audio Coding 3
Mode extension                           : CM (complete main)
Format settings, Endianness              : Big
Codec ID                                 : A_AC3
Duration                                 : 58mn 13s
Bit rate mode                            : Constant
Bit rate                                 : 192 Kbps
Channel(s)                               : 2 channels
Channel positions                        : Front: L R
Sampling rate                            : 48.0 KHz
Bit depth                                : 16 bits
Compression mode                         : Lossy
Stream size                              : 80.0 MiB (9%)
Default                                  : Yes
Forced                                   : No




Peaky Blinders S03E03 720p HDTV x264-FoV screenshots


Peaky Blinders S03E03 720p HDTV x264-FoV screenshots Peaky Blinders S03E03 720p HDTV x264-FoV screenshots Peaky Blinders S03E03 720p HDTV x264-FoV screenshots Peaky Blinders S03E03 720p HDTV x264-FoV screenshots




TitlePeaky Blinders
Year2013
Genre
Rating8.8 (176,527 votes)
PlotPeaky Blinders is an English television crime drama set in 1920s Birmingham, England in the aftermath of World War I. The series, which was created by Steven Knight and produced by Caryn Mandabach Productions, Screen Yorkshire and Tiger Aspect Productions, follows the exploits of the Shelby crime family. Screen Yorkshire provided funding for the production through the Yorkshire Content Fund. It was the first production to receive funding from the Yorkshire Content Fund, which in turn made…
Directorn/A
CastsCillian Murphy,Helen McCrory,Paul Anderson,Sophie Rundle,Ned Dennehy…
Runtime60 min
Genres
Peaky Blinders


The Americans 2013 S04E09 720p HDTV x264-AVSShadowhunters: The Mortal Instruments S03E03 720p AMZN WEB-DL DDP5.1 H.264-NTbMemories Of Love 2018 ViE 1080p HDTV AAC x264-TMShaolin Brave Tiger 2012 30/30 DVD ISOThe Night Of Part 5 720p HDTV x264-BATVRosewood S01 720p HDTV x264-Scene

Only members can create comment.