Porky's Revenge 1985 1080p BluRay DD2.0 x264

Download Porky's Revenge 1985 1080p BluRay DD2.0 x264 
Small DescriptionMeat, an Angel Beach high school student, picks up a shapely girl when she appears to have broken down by the side of the road; he is, however, shocked when her face doesn't match her figure. Not only that, she turns out to be the daughter of Porky, who has re-opened his nightclub in a Mississippi riverboat. Is this Porky's opportunity for revenge, or will the Angel Beach crowd outwit him once again? Written by Rhino
Basic Info
Uploaded byAnonymous at 2018-09-14 21:00:46
Action
Social
  • 1
Hot Meter
  • Views: 56
  • Hits: 10
  • Snatched: 6 x time(s)
  • Last Action: 2018-09-23 10:55:58
Peers3 Seeder | 0 Leecher
Porky's Revenge 1985 1080p BluRay DD2.0 x264 screenshots













Porky's Revenge 1985 1080p BluRay DD2.0 x264 screenshots


General
Unique ID                                : 216553892514177331769084397748231559617 (0xA2EAC33AD88BB839B87A5CB5D87359C1)
Complete name                            : F:\Porky's Revenge. BDRip 1080p.mkv
Format                                   : Matroska
Format version                           : Version 4 / Version 2
File size                                : 8.48 GiB
Duration                                 : 1 h 32 min
Overall bit rate                         : 13.1 Mb/s
Encoded date                             : UTC 2017-03-17 15:10:53
Writing application                      : mkvmerge v9.8.0 ('Kuglblids') 64bit
Writing library                          : libebml v1.3.4 + libmatroska v1.4.5

Video
ID                                       : 1
Format                                   : AVC
Format/Info                              : Advanced Video Codec
Format profile                           : High@L4.1
Format settings                          : CABAC / 4 Ref Frames
Format settings, CABAC                   : Yes
Format settings, RefFrames               : 4 frames
Codec ID                                 : V_MPEG4/ISO/AVC
Duration                                 : 1 h 32 min
Bit rate                                 : 11.5 Mb/s
Width                                    : 1 920 pixels
Height                                   : 1 040 pixels
Display aspect ratio                     : 1.85:1
Frame rate mode                          : Constant
Frame rate                               : 23.976 (24000/1001) FPS
Color space                              : YUV
Chroma subsampling                       : 4:2:0
Bit depth                                : 8 bits
Scan type                                : Progressive
Bits/(Pixel*Frame)                       : 0.240
Stream size                              : 7.38 GiB (87%)
Writing library                          : x264 core 148 r2694 3b70645
Encoding settings                        : cabac=1 / ref=4 / deblock=1:-2:-2 / analyse=0x3:0x113 / me=umh / subme=7 / psy=1 / psy_rd=1.00:0.15 / mixed_ref=1 / me_range=16 / chroma_me=1 / trellis=1 / 8x8dct=1 / cqm=0 / deadzone=21,11 / fast_pskip=1 / chroma_qp_offset=-3 / threads=40 / lookahead_threads=3 / sliced_threads=0 / nr=0 / decimate=1 / interlaced=0 / bluray_compat=0 / constrained_intra=0 / bframes=3 / b_pyramid=2 / b_adapt=2 / b_bias=0 / direct=3 / weightb=1 / open_gop=0 / weightp=2 / keyint=250 / keyint_min=25 / scenecut=40 / intra_refresh=0 / rc_lookahead=50 / rc=abr / mbtree=1 / bitrate=11500 / ratetol=1.0 / qcomp=0.60 / qpmin=0 / qpmax=69 / qpstep=4 / vbv_maxrate=31250 / vbv_bufsize=31250 / nal_hrd=none / filler=0 / ip_ratio=1.40 / aq=1:1.00
Language                                 : English
Default                                  : Yes
Forced                                   : No

Audio #1
ID                                       : 2
Format                                   : AC-3
Format/Info                              : Audio Coding 3
Codec ID                                 : A_AC3
Duration                                 : 1 h 32 min
Bit rate mode                            : Constant
Bit rate                                 : 192 kb/s
Channel(s)                               : 2 channels
Channel positions                        : Front: L R
Sampling rate                            : 48.0 kHz
Frame rate                               : 31.250 FPS (1536 SPF)
Bit depth                                : 16 bits
Compression mode                         : Lossy
Stream size                              : 127 MiB (1%)
Title                                    : Андрей Гаврилов
Language                                 : Russian
Service kind                             : Complete Main
Default                                  : Yes
Forced                                   : No

Audio #2
ID                                       : 3
Format                                   : DTS
Format/Info                              : Digital Theater Systems
Codec ID                                 : A_DTS
Duration                                 : 1 h 32 min
Bit rate mode                            : Constant
Bit rate                                 : 1 509 kb/s
Channel(s)                               : 2 channels
Channel positions                        : Front: L R
Sampling rate                            : 48.0 kHz
Frame rate                               : 93.750 FPS (512 SPF)
Bit depth                                : 16 bits
Compression mode                         : Lossy
Stream size                              : 1 000 MiB (12%)
Language                                 : English
Default                                  : No
Forced                                   : No

Text
ID                                       : 4
Format                                   : UTF-8
Codec ID                                 : S_TEXT/UTF8
Codec ID/Info                            : UTF-8 Plain Text
Duration                                 : 1 h 28 min
Bit rate                                 : 62 b/s
Count of elements                        : 1108
Stream size                              : 40.5 KiB (0%)
Language                                 : English
Default                                  : No
Forced                                   : No

Menu
00:00:00.000                             : en:Chapter 00
00:12:55.357                             : en:Chapter 01
00:21:44.761                             : en:Chapter 02
00:30:11.935                             : en:Chapter 03
00:47:05.072                             : en:Chapter 04
00:55:24.779                             : en:Chapter 05
01:07:20.661                             : en:Chapter 06
01:16:27.958                             : en:Chapter 07













Porky's Revenge 1985 1080p BluRay DD2.0 x264 screenshots


Porky's Revenge 1985 1080p BluRay DD2.0 x264 screenshotsPorky's Revenge 1985 1080p BluRay DD2.0 x264 screenshotsPorky's Revenge 1985 1080p BluRay DD2.0 x264 screenshots
Porky's Revenge 1985 1080p BluRay DD2.0 x264 screenshotsPorky's Revenge 1985 1080p BluRay DD2.0 x264 screenshotsPorky's Revenge 1985 1080p BluRay DD2.0 x264 screenshots

TitlePorky's Revenge
Year1985
GenreComedy
Rating4.7 (6,827 votes)
PlotMeat, an Angel Beach high school student, picks up a shapely girl when she appears to have broken down by the side of the road; he is, however, shocked when her face doesn't match her figure. Not only that, she turns out to be the daughter of Porky, who has re-opened his nightclub in a Mississippi riverboat. Is this Porky's opportunity for revenge, or will the Angel Beach crowd outwit him once again? Written by Rhino
DirectorJames Komack
CastsDan Monahan,Wyatt Knight,Tony Ganios,Mark Herrier,Kaki Hunter…
Runtime92 min
GenresComedy
Porky


Tags

Other releases

Same genre with Porky's Revenge 1985 1080p BluRay DD2.0 x264

Hall Pass 2011 720p BluRay x264-DONA Thousand Words 2012 1080p Bluray DTS x264-DONShameless US S07 720p BluRay DD5.1 x264-ZQAloha 2015 2160p WEB-DL DTS-HD MA 5.1 x264-TrollUHDSuperfast 2015 ViE mHD BluRay DD5.1 x264-TRiMAlexander and the Terrible, Horrible, No Good, Very Bad Day 2014 1080p BluRay DTS x264-VietHD

Comment for Porky's Revenge 1985 1080p BluRay DD2.0 x264

Only members can create comment.