NetHD.org

Queen Bee's Challenge 1972 480p DVD NTSC DD2.0-lordretsudo

Download Queen Bee's Challenge 1972 480p DVD NTSC DD2.0-lordretsudo 
Small Description18+ Cân nhấc khi xem | When two Girl Bosses fight each other over territory, their enmity is difficult to solve - they are equals in looks, strength, determination, and power of their respective girl gangs. So, the way is open to a mischievous Yakuza Boss who invites them for a peaceful way to decide their feud: a sexual challenge for him to decide who is the better Girl Boss. Trapped, both are subject to the man's lust and sadistic assaults. They escape by joining forces against the yakuza gang, though it costs one…
Basic Info
Uploaded byAnonymous at 2019-07-09 20:49:45
Action
Hot Meter
  • Views: 2126
  • Hits: 313
  • Snatched: 218 x time(s)
  • Last Action: 2019-11-20 20:43:09
Peers8 Seeder | 0 Leecher



Quote
When two Girl Bosses fight each other over territory, their enmity is difficult to solve - they are equals in looks, strength, determination, and power of their respective girl gangs. So, the way is open to a mischievous Yakuza Boss...


Queen Bee's Challenge 1972 480p DVD NTSC DD2.0-lordretsudo screenshots Queen Bee's Challenge 1972 480p DVD NTSC DD2.0-lordretsudo screenshots Queen Bee's Challenge 1972 480p DVD NTSC DD2.0-lordretsudo screenshots Queen Bee's Challenge 1972 480p DVD NTSC DD2.0-lordretsudo screenshots Queen Bee's Challenge 1972 480p DVD NTSC DD2.0-lordretsudo screenshots Queen Bee's Challenge 1972 480p DVD NTSC DD2.0-lordretsudo screenshots


General
Complete name : VTS_01_1.VOB
Format : MPEG-PS
File size : 1 024 MiB
Duration : 18 min 25 s
Overall bit rate mode : Variable
Overall bit rate : 7 769 kb/s

Video
ID : 224 (0xE0)
Format : MPEG Video
Format version : Version 2
Format profile : Main@Main
Format settings : CustomMatrix / BVOP
Format settings, BVOP : Yes
Format settings, Matrix : Custom
Format settings, GOP : Variable
Duration : 18 min 25 s
Bit rate mode : Variable
Bit rate : 7 230 kb/s
Maximum bit rate : 9 800 kb/s
Width : 720 pixels
Height : 480 pixels
Display aspect ratio : 16:9
Frame rate : 23.976 (24000/1001) FPS
Color space : YUV
Chroma subsampling : 4:2:0
Bit depth : 8 bits
Scan type : Progressive
Scan order : 2:3 Pulldown
Compression mode : Lossy
Bits/(Pixel*Frame) : 0.873
Time code of first frame : 02:24:54:15
Time code source : Group of pictures header
Stream size : 953 MiB (93%)

Audio
ID : 189 (0xBD)-128 (0x80)
Format : AC-3
Format/Info : Audio Coding 3
Commercial name : Dolby Digital
Muxing mode : DVD-Video
Duration : 18 min 25 s
Bit rate mode : Constant
Bit rate : 384 kb/s
Channel(s) : 2 channels
Channel layout : L R
Sampling rate : 48.0 kHz
Frame rate : 31.250 FPS (1536 SPF)
Bit depth : 16 bits
Compression mode : Lossy
Stream size : 50.6 MiB (5%)
Service kind : Complete Main



TitleMesubachi no chosen
Year1972
Genre
Rating6.4 (67 votes)
PlotWhen two Girl Bosses fight each other over territory, their enmity is difficult to solve - they are equals in looks, strength, determination, and power of their respective girl gangs. So, the way is open to a mischievous Yakuza Boss who invites them for a peaceful way to decide their feud: a sexual challenge for him to decide who is the better Girl Boss. Trapped, both are subject to the man's lust and sadistic assaults. They escape by joining forces against the yakuza gang, though it costs one…
DirectorNorifumi Suzuki
CastsReiko Ike,Chiyoko Kazama,Asao Koike,Ichirô Araki,Mikiko Asamatsu…
Runtime84 min
Mesubachi no chosen


Angel Has Fallen 2019 1080p BluRay TrueHD 7 x264-MTeamBullet to the Head 2012 1080p BluRay DTS x264-FANDANGOGangnam Blues 2015 Unrated mHD BluRay DD5.1 x264-EPiKThe Girl King  2015 720p BluRay DTS x264-VietHDDealer/Healer 2017 mHD BluRay DD5.1 2Audios x264-CMCTExtortion 2017 1080p GER Blu-ray AVC DTS-HD MA 5.1-BDA

Only members can create comment.