Ranh Giới Thiện Ác 2012 - Highs and Lows HDTV 720P SimBaLT ( 30 Tập )

Download Ranh Giới Thiện Ác 2012 - Highs and Lows HDTV 720P SimBaLT ( 30 Tập ) 
Small Description
Basic Info
Uploaded bytanhung238 (HAH) at 2012-11-10 03:15:15
Action
Social
  • 18
Hot Meter
  • Views: 5479
  • Hits: 828
  • Snatched: 24204 x time(s)
  • Last Action: 2018-08-14 08:55:41
Peers1 Seeder | 0 Leecher
Ranh Giới Thiện Ác - Highs and Lows


General
Unique ID                      : 233414966562275297990205744989404468899 (0xAF9A165D07FB5A74A17683EDAF1D16A3)
Complete name                  : O:\Phim Bo 20-10-2011\Ranh Giới Thiện Ác 2012 - Highs and Lows (SimBa LT) 30 Tap\Ranh.Gioi.Thien.Ac.HDTV.720P.SimBaLT.Tap.01.mkv
Format                         : Matroska
Format version                 : Version 2
File size                      : 1.23 GiB
Duration                       : 44mn 25s
Overall bit rate               : 3 968 Kbps
Encoded date                   : UTC 2012-11-07 00:49:30
Writing application            : mkvmerge v5.6.0 ('Kenya Kane') built on May 27 2012 16:44:04
Writing library                : Lavf54.27.100

Video
ID                             : 1
Format                         : AVC
Format/Info                    : Advanced Video Codec
Format profile                 : High@L3.1
Format settings, CABAC         : Yes
Format settings, ReFrames      : 4 frames
Codec ID                       : V_MPEG4/ISO/AVC
Duration                       : 44mn 25s
Bit rate                       : 3 697 Kbps
Width                          : 1 280 pixels
Height                         : 720 pixels
Display aspect ratio           : 16:9
Frame rate mode                : Variable
Frame rate                     : 25.000 fps
Color space                    : YUV
Chroma subsampling             : 4:2:0
Bit depth                      : 8 bits
Scan type                      : Progressive
Bits/(Pixel*Frame)             : 0.160
Stream size                    : 1.15 GiB (93%)
Writing library                : x264 core 125 r2208 d9d2288
Encoding settings              : cabac=1 / ref=3 / deblock=1:-1:-1 / analyse=0x3:0x113 / me=umh / subme=7 / psy=1 / psy_rd=1.00:0.00 / mixed_ref=1 / me_range=16 / chroma_me=1 / trellis=1 / 8x8dct=1 / cqm=0 / deadzone=21,11 / fast_pskip=1 / chroma_qp_offset=-2 / threads=3 / lookahead_threads=1 / sliced_threads=0 / nr=0 / decimate=1 / interlaced=0 / bluray_compat=0 / constrained_intra=0 / bframes=3 / b_pyramid=2 / b_adapt=1 / b_bias=0 / direct=1 / weightb=1 / open_gop=0 / weightp=2 / keyint=250 / keyint_min=25 / scenecut=40 / intra_refresh=0 / rc_lookahead=40 / rc=crf / mbtree=1 / crf=19.0 / qcomp=0.60 / qpmin=0 / qpmax=69 / qpstep=4 / ip_ratio=1.40 / aq=1:1.00
Default                        : Yes
Forced                         : No

Audio
ID                             : 2
Format                         : AC-3
Format/Info                    : Audio Coding 3
Mode extension                 : CM (complete main)
Codec ID                       : A_AC3
Duration                       : 44mn 25s
Bit rate mode                  : Constant
Bit rate                       : 192 Kbps
Channel(s)                     : 2 channels
Channel positions              : Front: L R
Sampling rate                  : 48.0 KHz
Bit depth                      : 16 bits
Compression mode               : Lossy
Stream size                    : 61.0 MiB (5%)
Default                        : Yes
Forced                         : No


Ranh Giới Thiện Ác 2012 - Highs and Lows HDTV 720P SimBaLT ( 30 Tập ) screenshots

Giám chế: Lâm Chí Hoa
Biên thẩm: Lương Ân Đồng, Diệp Thiên Thành
Số tập: 30
Hãng sản xuất: TVB
Diễn viên:
Miêu Kiều Vỹ - Gordon Hướng Vinh
Lâm Phong - Happy Sir Vi Thế Lạc
Từ Tử San - Trần Gia Bích
Ngô Ý Lợi - Vu Vịnh Đồng
Huỳnh Trí Hiền - Phan Học Lễ
Quan Ân Na - Cao Hy Tuyền


Ranh Giới Thiện Ác 2012 - Highs and Lows HDTV 720P SimBaLT ( 30 Tập ) screenshots

Ranh Giới Thiện Ác 2012 - Highs and Lows HDTV 720P SimBaLT ( 30 Tập ) screenshots

Ranh Giới Thiện Ác 2012 - Highs and Lows HDTV 720P SimBaLT ( 30 Tập ) screenshots

Ranh Giới Thiện Ác 2012 - Highs and Lows HDTV 720P SimBaLT ( 30 Tập ) screenshots

Ranh Giới Thiện Ác 2012 - Highs and Lows HDTV 720P SimBaLT ( 30 Tập ) screenshots

Ranh Giới Thiện Ác 2012 - Highs and Lows HDTV 720P SimBaLT ( 30 Tập ) screenshots

Hướng Vinh (Miêu Kiều Vỹ) cùng làm việc với Vỹ Thế Lạc trong cục điều tra tội phạm về ma tuý, tuy nhiên Hướng Vinh liên tục vi phạm buôn bán ma tuý ngầm. Vỹ Thế Lạc (Lâm Phong) tìm thấy dấu vết cho thấy Hướng Vinh là 1 cảnh sát biến chất, bí mật câu kết với bọn con buôn ma tuý. Vỹ Thế Lạc bắt đầu điều tra Hướng Vinh, trong khi đó thanh tra Phan Học Lễ (Huỳnh Trí Hiền) và anh cũng liên tục mâu thuẫn...

Mặc khác, nhờ điều tra Vỹ Thế Lạc quen biết với 1 cô gái chuyên cung cấp thông tin cho cảnh sát là Trần Gia Bích (Từ Tử San), cả hai xảy ra tình tay ba, người thứ 3 trong cuộc tình này là Cao Hy Tuyền (Quan Ân Na). Tuy nhiên cuối cùng Gia Bích lại rơi vào con đường ko lối thoát, trở thành độc hậu buôn bán ma tuý và thách thức cảnh sát. Vỹ Thế Lạc, Hướng Vinh và Trần Gia Bích bước vào 1 cuộc chiến không khoan nhượng...



Tags

Other releases

Same genre with Ranh Giới Thiện Ác 2012 - Highs and Lows HDTV 720P SimBaLT ( 30 Tập )

House of Lies S05E07 720p HDTV x264-AVSS.W.A.T. 2017 S01E20 720p HDTV x264-KILLERSAltered Carbon S01 1080p NF WEBRip DD+5.1 x264-NTbBoardwalk Empire S03 720p BluRay DD5.1 x264-DONKilljoys S02E03 720p HDTV x264-AVSMy Daughter Seo Young (KBS 2013) HDTV 720p (50 Tập) (FFVN)

Comment for Ranh Giới Thiện Ác 2012 - Highs and Lows HDTV 720P SimBaLT ( 30 Tập )

Only members can create comment.