NetHD.org

Romance 1999 1080p Bluray Remux AVC DTS-HD MA5.1-Goldenyann

Download Romance 1999 1080p Bluray Remux AVC DTS-HD MA5.1-Goldenyann Free
Small DescriptionKhao Khát Cháy Bỏng | Phụ đề Việt | Khi anh bạn trai ủy mị từ chối làm tình với Marie, cô đã tìm đến những người đàn ông khác để thỏa mãn dục vọng của mình. Với Marie, đó là một chuyến đi khám phá tình dục, khám phá những khao khát kìm nén bên trong một người phụ nữ và khám phá chính bản thân mình.
Basic Info
Uploaded byaavc (Power User) at 2020-01-14 16:16:18
Action
Hot Meter
  • Views: 1046
  • Hits: 118
  • Snatched: 73 x time(s)
  • Last Action: 2020-01-26 22:04:53
Peers20 Seeder | 1 Leecher



Romance 1999 1080p Bluray Remux AVC DTS-HD MA5.1-Goldenyann screenshots



Romance 1999 1080p Bluray Remux AVC DTS-HD MA5.1-Goldenyann screenshots



Quote

Khi anh bạn trai ủy mị từ chối làm tình với Marie, cô đã tìm đến những người đàn ông khác để thỏa mãn dục vọng của mình. Với Marie, đó là một chuyến đi khám phá tình dục, khám phá những khao khát kìm nén bên trong một người phụ nữ và khám phá chính bản thân mình.




Romance 1999 1080p Bluray Remux AVC DTS-HD MA5.1-Goldenyann screenshots





Quote

General
Unique ID                   : 106008105250596109676372757483025026006 (0x4FC06B1DE665EB5949D05B5425434BD6)
Complete name               : \\AAVC-PC\Downloads\tor\Romance.1999.1080p.Bluray.Remux.AVC.DTS-HD.MA5.1-Goldenyann.mkv
Format                      : Matroska
Format version              : Version 4
File size                   : 25.9 GiB
Duration                    : 1 h 38 min
Overall bit rate mode       : Variable
Overall bit rate            : 37.6 Mb/s
Movie name                  : Romance.1999.1080p.Bluray.Remux.AVC.DTS-HD.MA5.1-Goldenyann
Encoded date                : UTC 2019-12-27 08:18:20
Writing application         : mkvmerge v23.0.0 ('The Bride Said No') 64-bit
Writing library             : libebml v1.3.6 + libmatroska v1.4.9

Video
ID                          : 1
Format                      : AVC
Format/Info                 : Advanced Video Codec
Format profile              : High@L4.1
Format settings             : CABAC / 3 Ref Frames
Format settings, CABAC      : Yes
Format settings, Reference  : 3 frames
Codec ID                    : V_MPEG4/ISO/AVC
Duration                    : 1 h 38 min
Bit rate mode               : Variable
Bit rate                    : 35.0 Mb/s
Width                       : 1 920 pixels
Height                      : 1 080 pixels
Display aspect ratio        : 16:9
Frame rate mode             : Constant
Frame rate                  : 23.976 (24000/1001) FPS
Color space                 : YUV
Chroma subsampling          : 4:2:0
Bit depth                   : 8 bits
Scan type                   : Progressive
Bits/(Pixel*Frame)          : 0.704
Stream size                 : 23.6 GiB (91%)
Title                       : Source: ROMANCE 1999.iso - Notag
Writing library             : x264 core 148 r2705 3f5ed56
Encoding settings           : cabac=1 / ref=4 / deblock=0:-1:-1 / analyse=0x3:0x133 / me=umh / subme=10 / psy=1 / psy_rd=1.00:0.15 / mixed_ref=1 / me_range=24 / chroma_me=1 / trellis=2 / 8x8dct=1 / cqm=0 / deadzone=0,0 / fast_pskip=1 / chroma_qp_offset=-3 / threads=34 / lookahead_threads=2 / sliced_threads=0 / slices=4 / nr=0 / decimate=1 / interlaced=0 / bluray_compat=1 / constrained_intra=0 / bframes=3 / b_pyramid=1 / b_adapt=2 / b_bias=0 / direct=3 / weightb=1 / open_gop=1 / weightp=1 / keyint=24 / keyint_min=1 / scenecut=20 / intra_refresh=0 / rc_lookahead=24 / rc=cbr / mbtree=0 / bitrate=35000 / ratetol=1.0 / qcomp=0.60 / qpmin=0 / qpmax=69 / qpstep=4 / vbv_maxrate=35000 / vbv_bufsize=30000 / nal_hrd=vbr / filler=0 / ip_ratio=1.40 / pb_ratio=1.30 / aq=1:0.50
Language                    : French
Default                     : Yes
Forced                      : No
Color range                 : Limited
Color primaries             : BT.709
Transfer characteristics    : BT.709
Matrix coefficients         : BT.709

Audio
ID                          : 2
Format                      : DTS XLL
Format/Info                 : Digital Theater Systems
Commercial name             : DTS-HD Master Audio
Codec ID                    : A_DTS
Duration                    : 1 h 38 min
Bit rate mode               : Variable
Bit rate                    : 3 298 kb/s
Channel(s)                  : 6 channels
Channel layout              : C L R Ls Rs LFE
Sampling rate               : 48.0 kHz
Frame rate                  : 93.750 FPS (512 SPF)
Bit depth                   : 24 bits
Compression mode            : Lossless
Delay relative to video     : 42 ms
Stream size                 : 2.27 GiB (9%)
Title                       : VOF DTS-HD MA5.1
Language                    : French
Default                     : Yes
Forced                      : No

Text
ID                          : 3
Format                      : PGS
Muxing mode                 : zlib
Codec ID                    : S_HDMV/PGS
Codec ID/Info               : Picture based subtitle format used on BDs/HD-DVDs
Duration                    : 1 h 36 min
Bit rate                    : 21.8 kb/s
Count of elements           : 1634
Stream size                 : 15.0 MiB (0%)
Title                       : English Full
Language                    : English
Default                     : No
Forced                      : No

Menu
00:00:00.000                : en:Chapter 01
00:06:36.187                : en:Chapter 02
00:15:03.068                : en:Chapter 03
00:21:13.897                : en:Chapter 04
00:29:08.163                : en:Chapter 05
00:38:26.470                : en:Chapter 06
00:51:36.426                : en:Chapter 07
01:02:08.349                : en:Chapter 08
01:11:18.148                : en:Chapter 09
01:21:11.366                : en:Chapter 10
01:26:23.970                : en:Chapter 11
01:33:19.719                : en:Chapter 12





Romance 1999 1080p Bluray Remux AVC DTS-HD MA5.1-Goldenyann screenshots



Romance 1999 1080p Bluray Remux AVC DTS-HD MA5.1-Goldenyann screenshots Romance 1999 1080p Bluray Remux AVC DTS-HD MA5.1-Goldenyann screenshots Romance 1999 1080p Bluray Remux AVC DTS-HD MA5.1-Goldenyann screenshots Romance 1999 1080p Bluray Remux AVC DTS-HD MA5.1-Goldenyann screenshots Romance 1999 1080p Bluray Remux AVC DTS-HD MA5.1-Goldenyann screenshots Romance 1999 1080p Bluray Remux AVC DTS-HD MA5.1-Goldenyann screenshots 

TitleRomance
Year1999
GenreDrama
Rating5.3 (9,416 votes)
PlotAlthough deeply in love with her boyfriend - and indeed sleeping in the same bed with him - a schoolteacher cannot handle the almost complete lack of intimacy he will allow. Increasingly frustrated, she gradually finds her sexual appetites leading her into ever more risky situations, including a developing one with the headmaster. Written by Jeremy Perkins {J-26}
DirectorCatherine Breillat
CastsCaroline Ducey,Sagamore Stévenin,François Berléand,Rocco Siffredi,Reza Habouhossein…
Runtime84 min
Romance


Zipper 2015 REPACK 1080p BluRay DD5.1 x264-TayTOSigns 2002 720p BluRay DD5.1 x264-RightSiZEMae Bia Uncut 2015 ViE 1080p NF WEB-DL DD2.0 x264-JackrizleyBlack Book 2006 1080p Blu-ray AVC DTS-HD MA5.1Lifeboat 1944 1080p Blu-ray AVC DTS-HD MA 2.0-ESiRBình Tây Đại Nguyên Soái VIE 1080i HDTV AAC 2 0 H.264-NTV

Only members can create comment.