NetHD.org

Royal Warriors 1986 mHD BluRay DD5.1 x264-CNXP

Download Royal Warriors 1986 mHD BluRay DD5.1 x264-CNXP 
Small DescriptionChiến Binh Hoàng Gia l Dương Tử Quỳnh l Sub việt
Basic Info
Uploaded byanvietcanh2 (Movie) at 2017-05-25 11:16:46
Action
Social
  • 0
Hot Meter
  • Views: 608
  • Hits: 64
  • Snatched: 43 x time(s)
  • Last Action: 2019-03-26 10:11:55
Peers2 Seeder | 0 Leecher


Royal Warriors 1986 mHD BluRay DD5.1 x264-CNXP screenshots

Plot:
Trên chuyến bay từ Nhật về Hồng Kông sau kì nghỉ phép đã hợp sức với một hộ hành viên tên Michael (Vương Mẫn Đức thủ vai) và một cảnh sát Nhật tên Sơn Bản (Hiroyuki Sanada thủ vai) để cùng tiêu diệt một tên không tặc và một trùm ma túy là anh em kết nghĩa của tên không tặc đang được dẫn độ về Hồng Kông xét xử. Sau sự kiện đó, ba người anh hùng trở nên nổi tiếng, đồng thời cũng trở thành mục tiêu trả thù của hai tên còn lại trong nhóm anh em kết nghĩa kia.

General
Unique ID                                : 188903866789377201122246508494107583364 (0x8E1D8FB5AEF89315922110408BAE2384)
Complete name                            : E:\Up load\Royal Warriors 1986 mHD BluRay DD5.1 x264-CNXP.mkv
Format                                   : Matroska
Format version                           : Version 1
File size                                : 2.20 GiB
Duration                                 : 1 h 36 min
Overall bit rate                         : 3 280 kb/s
Encoded date                             : UTC 2011-10-03 11:00:48
Writing application                      : mkvmerge v2.2.0 ('Turn It On Again') built on Mar  4 2008 12:58:26
Writing library                          : libebml v0.7.7 + libmatroska v0.8.1

Video
ID                                       : 1
Format                                   : AVC
Format/Info                              : Advanced Video Codec
Format profile                           : High@L3.1
Format settings, CABAC                   : Yes
Format settings, ReFrames                : 5 frames
Codec ID                                 : V_MPEG4/ISO/AVC
Duration                                 : 1 h 36 min
Bit rate                                 : 2 382 kb/s
Width                                    : 1 280 pixels
Height                                   : 720 pixels
Display aspect ratio                     : 16:9
Frame rate mode                          : Constant
Frame rate                               : 23.976 FPS
Color space                              : YUV
Chroma subsampling                       : 4:2:0
Bit depth                                : 8 bits
Scan type                                : Progressive
Bits/(Pixel*Frame)                       : 0.108
Stream size                              : 1.56 GiB (71%)
Title                                    : 帝国出品
Writing library                          : x264 core 68 r1183M f21daff
Encoding settings                        : cabac=1 / ref=5 / deblock=1:-1:-1 / analyse=0x3:0x133 / me=umh / subme=9 / psy_rd=0.0:0.0 / mixed_ref=1 / me_range=32 / chroma_me=1 / trellis=2 / 8x8dct=1 / cqm=0 / deadzone=21,11 / chroma_qp_offset=0 / threads=6 / nr=0 / decimate=1 / mbaff=0 / bframes=3 / b_pyramid=1 / b_adapt=2 / b_bias=0 / direct=3 / wpredb=1 / keyint=250 / keyint_min=25 / scenecut=40 / rc=2pass / bitrate=2382 / ratetol=1.0 / qcomp=0.60 / qpmin=10 / qpmax=51 / qpstep=4 / cplxblur=20.0 / qblur=0.5 / ip_ratio=1.40 / pb_ratio=1.30 / aq=1:1.00
Language                                 : Chinese
Default                                  : Yes
Forced                                   : No

Audio #1
ID                                       : 2
Format                                   : AC-3
Format/Info                              : Audio Coding 3
Mode extension                           : CM (complete main)
Format settings, Endianness              : Big
Codec ID                                 : A_AC3
Duration                                 : 1 h 36 min
Bit rate mode                            : Constant
Bit rate                                 : 448 kb/s
Channel(s)                               : 6 channels
Channel positions                        : Front: L C R, Side: L R, LFE
Sampling rate                            : 48.0 kHz
Frame rate                               : 31.250 FPS (1536 spf)
Compression mode                         : Lossy
Stream size                              : 308 MiB (14%)
Title                                    : 国语
Language                                 : Chinese
Default                                  : Yes
Forced                                   : No

Audio #2
ID                                       : 3
Format                                   : AC-3
Format/Info                              : Audio Coding 3
Mode extension                           : CM (complete main)
Format settings, Endianness              : Big
Codec ID                                 : A_AC3
Duration                                 : 1 h 36 min
Bit rate mode                            : Constant
Bit rate                                 : 448 kb/s
Channel(s)                               : 6 channels
Channel positions                        : Front: L C R, Side: L R, LFE
Sampling rate                            : 48.0 kHz
Frame rate                               : 31.250 FPS (1536 spf)
Compression mode                         : Lossy
Stream size                              : 308 MiB (14%)
Title                                    : 粤语
Language                                 : Chinese
Default                                  : No
Forced                                   : No

Text #1
ID                                       : 4
Format                                   : ASS
Codec ID                                 : S_TEXT/ASS
Codec ID/Info                            : Advanced Sub Station Alpha
Compression mode                         : Lossless
Title                                    : 中英文字幕
Language                                 : English
Default                                  : Yes
Forced                                   : No

Text #2
ID                                       : 5
Format                                   : ASS
Codec ID                                 : S_TEXT/ASS
Codec ID/Info                            : Advanced Sub Station Alpha
Compression mode                         : Lossless
Title                                    : 中文字幕
Language                                 : Chinese
Default                                  : No
Forced                                   : No


Royal Warriors 1986 mHD BluRay DD5.1 x264-CNXP screenshots Royal Warriors 1986 mHD BluRay DD5.1 x264-CNXP screenshots Royal Warriors 1986 mHD BluRay DD5.1 x264-CNXP screenshots Royal Warriors 1986 mHD BluRay DD5.1 x264-CNXP screenshots Royal Warriors 1986 mHD BluRay DD5.1 x264-CNXP screenshots Royal Warriors 1986 mHD BluRay DD5.1 x264-CNXP screenshots Royal Warriors 1986 mHD BluRay DD5.1 x264-CNXP screenshots Royal Warriors 1986 mHD BluRay DD5.1 x264-CNXP screenshots 
TitleWong ga jin si
Year1986
Genre
Rating6.8 (946 votes)
PlotMichelle Yip of the Hong Kong police is a mild-mannered Kung Fu expert; Michael Wong from air security is happy-go-lucky, stuck on himself, constantly talking, and smitten by her; Yamamoto is quiet, hard-boiled, leaving the Tokyo police to spend time with his wife and daughter. They form an alliance when they foil a hijacking on a plane flying a mob prisoner from Tokyo to Hong Kong. The mobster and his would-be rescuer die; this sets off two avengers who were their blood brothers. Our three…
DirectorDavid Chung
CastsMichelle Yeoh,Michael Wong,Hiroyuki Sanada,Ying Bai,Dennis Chan…
Runtime96 min
Genres
Wong ga jin si


Casshern 2004 1080p BluRay DTS x264-CHDOcean Waves 1993 1080p Blu-ray AVC LPCM 2 0-SuKoCradle 2 The Grave 2003 720p BluRay DTS x264-CtrlHDTraitor 2008 1080p BluRay DTS x264-CtrlHDSuperman III 1983 1080p Blu-ray AVC DTS-HD MA 5.1xXx Colection 2002 -2005 ViE mHD BluRay DD5.1 x264-TRiM

Only members can create comment.