S.W.A.T. 2017 S01E03 720p HDTV x264-KILLERS

Download S.W.A.T. 2017 S01E03 720p HDTV x264-KILLERS 
Small DescriptionFollows a locally born and bred S.W.A.T. lieutenant who is torn between loyalty to the streets and duty to his fellow officers when he's tasked to run a highly-trained unit that's the last stop for solving crimes in Los Angeles.
Basic Info
Uploaded bydpc (Uploader) at 2017-12-16 08:32:50
Action
Social
  • 2
Hot Meter
  • Views: 399
  • Hits: 28
  • Snatched: 20 x time(s)
  • Last Action: 2018-11-16 00:18:45
Peers0 Seeder | 0 Leecher
S.W.A.T. 2017 S01E03 720p HDTV x264-KILLERS screenshots


Là phiên bản truyền hình của bộ phim điện ảnh cùng tên năm 2003 (vốn cũng được xây dựng dựa trên series năm 1975), series mới của truyền hình Mỹ tháng 11 S.W.A.T. sẽ không chỉ nói tới sự khắc nghiệt của cuộc sống quân nhân, mà còn xen lẫn những tình tiết lãng mạn của tình yêu nam nữ.
Đây là series hành động kịch tính, mang đến cái nhìn chân thực và nhạy cảm về những người đàn ông và phụ nữ dũng cảm thuộc đơn vị tinh nhuệ mang tên Đơn vị Chiến thuật và Vũ khí Ngầm Đặc biệt (S.W.A.T.) thuộc Sở cảnh sát Los Angeles. Phim theo chân cựu lính hải quân Marine Daniel "Hondo" Harrelson, người đã được thăng chức lên làm đội trưởng của S.W.A.T. Ở vị trí mới, nhiệm vụ của Hondo càng trở nên khó khăn vì mối tình giấu kín giữa anh và giám sát trực tiếp của anh - Jessica Cortez - bên cạnh đó là tâm trạng thất vọng của Deacon, người đồng đội đã không được chọn trong cuộc chạy đua chức đội trưởng với anh.
Thành phố đã rơi vào tình trạng hỗn loạn, chao đảo sau một vụ nổ súng bất ngờ vào một cậu bé vô tội. Hondo, một người đã sống cả đời ở Nam Los Angeles, cảm thấy bị giằng xé giữa những người dân thành phố đang đau buồn vì vụ tai nạn và những người hàng xóm của anh. Hondo sẽ phải tìm ra một cây cầu nối giữa hai thế giới này và đưa những kẻ ngoài vòng pháp luật ra trước công lý trước khi chúng có thể khiến thành phố đảo lộn lần nữa.



S.W.A.T. 2017 S01E03 720p HDTV x264-KILLERS screenshots


Quote
General
Unique ID                   : 3036525248478452422220119720080191871 (0x248D040E65D240E2C9075EBBAC8317F)
Complete name               : D:\Downloads\Phim\S.W.A.T.2017.S01.720p.HDTV.x264-KILLERS\S.W.A.T.2017.S01E03.720p.HDTV.x264-KILLERS.mkv
Format                      : Matroska
Format version              : Version 4 / Version 2
File size                   : 862 MiB
Duration                    : 42 min 23 s
Overall bit rate            : 2 845 kb/s
Encoded date                : UTC 2017-11-17 03:12:23
Writing application         : mkvmerge v9.0.1 ('Obstacles') 64bit
Writing library             : libebml v1.3.3 + libmatroska v1.4.4

Video
ID                          : 1
Format                      : AVC
Format/Info                 : Advanced Video Codec
Format profile              : High@L4.1
Format settings, CABAC      : Yes
Format settings, ReFrames   : 5 frames
Codec ID                    : V_MPEG4/ISO/AVC
Duration                    : 42 min 23 s
Bit rate                    : 2 404 kb/s
Width                       : 1 280 pixels
Height                      : 720 pixels
Display aspect ratio        : 16:9
Frame rate mode             : Constant
Frame rate                  : 23.976 (24000/1001) FPS
Color space                 : YUV
Chroma subsampling          : 4:2:0
Bit depth                   : 8 bits
Scan type                   : Progressive
Bits/(Pixel*Frame)          : 0.109
Stream size                 : 729 MiB (85%)
Writing library             : x264 core 152 r2851 ba24899
Encoding settings           : cabac=1 / ref=5 / deblock=1:0:0 / analyse=0x3:0x113 / me=hex / subme=8 / psy=1 / psy_rd=1.00:0.00 / mixed_ref=1 / me_range=16 / chroma_me=1 / trellis=2 / 8x8dct=1 / cqm=0 / deadzone=21,11 / fast_pskip=1 / chroma_qp_offset=-2 / threads=22 / lookahead_threads=3 / sliced_threads=0 / nr=0 / decimate=1 / interlaced=0 / bluray_compat=0 / constrained_intra=0 / bframes=3 / b_pyramid=2 / b_adapt=1 / b_bias=0 / direct=3 / weightb=1 / open_gop=0 / weightp=2 / keyint=250 / keyint_min=23 / scenecut=40 / intra_refresh=0 / rc_lookahead=50 / rc=crf / mbtree=1 / crf=18.0 / qcomp=0.60 / qpmin=0 / qpmax=69 / qpstep=4 / ip_ratio=1.40 / aq=1:1.00
Default                     : Yes
Forced                      : No
Color range                 : Limited
Matrix coefficients         : BT.709

Audio
ID                          : 2
Format                      : AC-3
Format/Info                 : Audio Coding 3
Mode extension              : CM (complete main)
Format settings, Endianness : Big
Codec ID                    : A_AC3
Duration                    : 42 min 23 s
Bit rate mode               : Constant
Bit rate                    : 384 kb/s
Channel(s)                  : 6 channels
Channel positions           : Front: L C R, Side: L R, LFE
Sampling rate               : 48.0 kHz
Frame rate                  : 31.250 FPS (1536 spf)
Bit depth                   : 16 bits
Compression mode            : Lossy
Stream size                 : 116 MiB (13%)
Default                     : Yes
Forced                      : No




S.W.A.T. 2017 S01E03 720p HDTV x264-KILLERS screenshots


S.W.A.T. 2017 S01E03 720p HDTV x264-KILLERS screenshots S.W.A.T. 2017 S01E03 720p HDTV x264-KILLERS screenshots S.W.A.T. 2017 S01E03 720p HDTV x264-KILLERS screenshots S.W.A.T. 2017 S01E03 720p HDTV x264-KILLERS screenshots



S.W.A.T. 2017 S01E03 720p HDTV x264-KILLERS screenshots



TitleS.W.A.T.
Year2017
Genre
Rating6.6 (7,349 votes)
Plotn/A
Directorn/A
CastsShemar Moore,Stephanie Sigman,Alex Russell,Lina Esco,Kenny Johnson…
Runtime43 min
Genres
S.W.A.T.


Tags

Other releases

Same genre with S.W.A.T. 2017 S01E03 720p HDTV x264-KILLERS

Deception 2018 S01E02 720p AMZN WEB-DL DDP5.1 H.264-NTbIntruders S01 720p BluRay X264-PACKLegends 2014 Season 01 720p HDTV X264 24 S02 720p WEB-DL DD5.1 H.264-HDBBrooklyn Nine-Nine S03E13 720p HDTV x264-AVSDexter S04 720p BluRay x264-DiRTY

Comment for S.W.A.T. 2017 S01E03 720p HDTV x264-KILLERS

Only members can create comment.