NetHD.org

Salo or the 120 Days of Sodom 1975 1080p GBR Blu-ray AVC DTS-HD MA 1.0-CrsS

Download Salo or the 120 Days of Sodom 1975 1080p GBR Blu-ray AVC DTS-HD MA 1.0-CrsS Free
Small DescriptionCân Nhắc Trước Khi Xem
Basic Info
Uploaded byAnonymous at 2019-12-03 04:31:26
Action
Hot Meter
  • Views: 346
  • Hits: 22
  • Snatched: 14 x time(s)
  • Last Action: 2019-12-07 22:40:25
Peers6 Seeder | 0 Leecher



Salo or the 120 Days of Sodom 1975 1080p GBR Blu-ray AVC DTS-HD MA 1.0-CrsS screenshots



Quote
. Original Italian language and alternative English language versions
. Newly recorded audio commentary by Kat Ellinger, author, film critic, columnist and editor-in-chief for Diabolique magazine
. The End of Salò (2008, 40mins): actors Antinisca Nemour and Paolo Bonacelli, screenwriter Pupi Avati, production designer Dante Ferretti, assistant director Fiorella Infascelli, assistant editor Ugo Maria De Rossi and others, discuss the film's production history and Pasolini's legacy and tragic death.
. ‘OSTIA (The Death of Pasolini)’ Coil’s 1986 track with video accompaniment from 2008
. Open Your Eyes! (2008, 22 mins), Pasolini and his actors at work on the set of Salò
. Walking with Pasolini (2008, 22 mins): documentary featuing Neil Bartlett, David Forgacs, Noam Chomsky and Craig Lapper
. Whoever Says the Truth Shall Die (1981, 61 mins) the classic documentary on the life and death of Pasolini
. Salò: Fade to Black (2001, 24 mins): documentary exploring the ongoing relevance and power of Pasolini's masterpiece
. Ostia (1987, 27 mins): a short film about Pasolini starring Derek Jarman with optional director's commentary
. Enfants de Salò (2009, 18 mins): French filmmakers including Gaspar Noé deconstruct Salò
. Original Italian trailer



Quote
DISC INFO:

Disc Title:     Salo or the 120 Days of Sodom 1975 1080p GBR Blu-ray AVC DTS-HD MA 1.0-CrsS
Disc Label:     SALO
Disc Size:      37,434,786,916 bytes
Protection:     AACS
Extras:         BD-Java
BDInfo:         0.7.5.5

PLAYLIST REPORT:

Name:                   00403.MPLS
Length:                 1:56:58.344 (h:m:s.ms)
Size:                   34,680,702,912 bytes
Total Bitrate:          39.53 Mbps

(*) Indicates included stream hidden by this playlist.

VIDEO:

Codec                   Bitrate             Description   
-----                   -------             -----------   
MPEG-4 AVC Video        35038 kbps          1080p / 23.976 fps / 16:9 / High Profile 4.1

AUDIO:

Codec                           Language        Bitrate         Description   
-----                           --------        -------         -----------   
* DTS-HD Master Audio           Italian         1095 kbps       1.0 / 48 kHz /  1095 kbps / 24-bit (DTS Core: 1.0 / 48 kHz /   768 kbps / 24-bit)
DTS-HD Master Audio             English         1092 kbps       1.0 / 48 kHz /  1092 kbps / 24-bit (DTS Core: 1.0 / 48 kHz /   768 kbps / 24-bit)
Dolby Digital Audio             English         192 kbps        2.0 / 48 kHz /   192 kbps / DN -31dB

SUBTITLES:

Codec                           Language        Bitrate         Description   
-----                           --------        -------         -----------   
* Presentation Graphics         English         21.270 kbps                   
Presentation Graphics           English         35.341 kbps                   
Presentation Graphics           English         0.328 kbps                     

FILES:

Name            Time In         Length          Size            Total Bitrate 
----            -------         ------          ----            ------------- 
00004.M2TS      0:00:00.000     0:03:30.668     1,039,211,712   39,456         
00009.M2TS      0:03:30.668     0:19:45.058     5,851,830,912   39,503         
00013.M2TS      0:23:15.727     0:00:11.302     57,223,104      40,352         
00014.M2TS      0:23:27.030     0:33:13.408     9,860,507,712   39,572         
00010.M2TS      0:56:40.438     0:00:25.734     131,020,224     40,665         
00008.M2TS      0:57:06.172     0:29:46.910     8,839,531,200   39,574         
00006.M2TS      1:26:53.082     0:00:26.693     135,595,968     40,575         
00002.M2TS      1:27:19.776     0:29:00.572     8,599,844,160   39,526         
00015.M2TS      1:56:20.348     0:00:37.996     165,937,920     34,899





Salo or the 120 Days of Sodom 1975 1080p GBR Blu-ray AVC DTS-HD MA 1.0-CrsS screenshots Salo or the 120 Days of Sodom 1975 1080p GBR Blu-ray AVC DTS-HD MA 1.0-CrsS screenshots Salo or the 120 Days of Sodom 1975 1080p GBR Blu-ray AVC DTS-HD MA 1.0-CrsS screenshots Salo or the 120 Days of Sodom 1975 1080p GBR Blu-ray AVC DTS-HD MA 1.0-CrsS screenshots Salo or the 120 Days of Sodom 1975 1080p GBR Blu-ray AVC DTS-HD MA 1.0-CrsS screenshots Salo or the 120 Days of Sodom 1975 1080p GBR Blu-ray AVC DTS-HD MA 1.0-CrsS screenshots





Quote
Bonus disc
Disc Label: SALO BONUS FEATURES
Disc Size: 38,124,929,083 bytes
Protection: AACS
Playlist: 00480.MPLS
Size: 9,635,343,936 bytes
Length: 1:00:41.179
Total Bitrate: 21.17 Mbps
Video: MPEG-4 AVC Video / 19987 kbps / 1080p / 23.976 fps / 16:9 / High Profile 4.1
Audio: English / Dolby Digital Audio / 2.0 / 48 kHz /   192 kbps / DN -31dB



Salo or the 120 Days of Sodom 1975 1080p GBR Blu-ray AVC DTS-HD MA 1.0-CrsS screenshots Salo or the 120 Days of Sodom 1975 1080p GBR Blu-ray AVC DTS-HD MA 1.0-CrsS screenshots Salo or the 120 Days of Sodom 1975 1080p GBR Blu-ray AVC DTS-HD MA 1.0-CrsS screenshots

TitleSalò o le 120 giornate di Sodoma
Year1975
Genre
Rating5.9 (49,879 votes)
PlotNazi-Fascist Northern Italy, 1943-44. Four senior members of government, aided by henchmen and Nazi soldiers, kidnap a group of young men and women. They hold them for 120 days, subjecting them to all manner of torture, perversion and degradation. Written by grantss
DirectorPier Paolo Pasolini
CastsPaolo Bonacelli,Giorgio Cataldi,Umberto Paolo Quintavalle,Aldo Valletti,Caterina Boratto…
Runtime117 min
Salò o le 120 giornate di Sodoma


The Way We Were 1973 1080p BluRay DD5.1 x264-TayTOAftershock 2010 720p BluRay x264-EbPAhlat Agaci 2018 720p BluRay DD5.1 x264-TayTO90 Minutes in Heaven 2015.1080p BluRay DTS x264-iFTShuffle 2011 1080p Blu-ray AVC DD 2.0-watchHDI Wish 2011 1080p Blu-ray AVC LPCM 2.0-ADC

Only members can create comment.