NetHD.org

Scoob! 2020 ViE 1080p AMZN WEB-DL DD2.0 H.264-NTG

Download Scoob! 2020 ViE 1080p AMZN WEB-DL DD2.0 H.264-NTG 
Small DescriptionCuộc Phiêu Lưu Của Scooby-Doo | Thuyết Minh
Basic Info
Uploaded byAnonymous at 2020-06-30 14:08:14
Action
Hot Meter
  • Views: 337
  • Hits: 119
  • Snatched: 97 x time(s)
  • Last Action: 2020-07-12 13:05:52
Peers34 Seeder | 0 Leecher



Scoob! 2020 ViE 1080p AMZN WEB-DL DD2.0 H.264-NTG screenshots











Scoob! 2020 ViE 1080p AMZN WEB-DL DD2.0 H.264-NTG screenshots


Quote
General
Unique ID                                : 180618009694931767673979253879518648022 (0x87E1C36A08DA59CF9EF3D845D3E5D6D6)
Complete name                            : Y:\Scoob.2020.ViE.1080p.AMZN.WEB-DL.DD2.0.H.264-NTG.mkv
Format                                   : Matroska
Format version                           : Version 4 / Version 2
File size                                : 5.68 GiB
Duration                                 : 1 h 33 min
Overall bit rate                         : 8 675 kb/s
Encoded date                             : UTC 2020-06-24 02:35:02
Writing application                      : mkvmerge v7.8.0 ('River Man') 32bit built on Mar 27 2015 16:18:02
Writing library                          : libebml v1.3.1 + libmatroska v1.4.2

Video
ID                                       : 1
Format                                   : AVC
Format/Info                              : Advanced Video Codec
Format profile                           : High@L4
Format settings, CABAC                   : Yes
Format settings, ReFrames                : 4 frames
Codec ID                                 : V_MPEG4/ISO/AVC
Duration                                 : 1 h 33 min
Bit rate mode                            : Constant
Bit rate                                 : 7 585 kb/s
Nominal bit rate                         : 10 000 kb/s
Width                                    : 1 920 pixels
Height                                   : 800 pixels
Display aspect ratio                     : 2.40:1
Frame rate mode                          : Constant
Frame rate                               : 23.976 (24000/1001) FPS
Color space                              : YUV
Chroma subsampling                       : 4:2:0
Bit depth                                : 8 bits
Scan type                                : Progressive
Bits/(Pixel*Frame)                       : 0.206
Stream size                              : 4.97 GiB (87%)
Language                                 : English
Default                                  : Yes
Forced                                   : No
Color range                              : Limited
Color primaries                          : BT.709
Transfer characteristics                 : BT.709
Matrix coefficients                      : BT.709

Audio #1
ID                                       : 2
Format                                   : AC-3
Format/Info                              : Audio Coding 3
Format settings, Endianness              : Big
Codec ID                                 : A_AC3
Duration                                 : 1 h 33 min
Bit rate mode                            : Constant
Bit rate                                 : 448 kb/s
Channel(s)                               : 2 channels
Channel positions                        : Front: L R
Sampling rate                            : 48.0 kHz
Frame rate                               : 31.250 FPS (1536 spf)
Bit depth                                : 16 bits
Compression mode                         : Lossy
Stream size                              : 300 MiB (5%)
Language                                 : Vietnamese
Service kind                             : Complete Main
Default                                  : Yes
Forced                                   : Yes

Audio #2
ID                                       : 3
Format                                   : E-AC-3
Format/Info                              : Enhanced Audio Coding 3
Format settings, Endianness              : Big
Codec ID                                 : A_EAC3
Duration                                 : 1 h 33 min
Bit rate mode                            : Constant
Bit rate                                 : 640 kb/s
Channel(s)                               : 6 channels
Channel positions                        : Front: L C R, Side: L R, LFE
Sampling rate                            : 48.0 kHz
Frame rate                               : 187.500 FPS (256 spf)
Compression mode                         : Lossy
Stream size                              : 429 MiB (7%)
Language                                 : English
Service kind                             : Complete Main
Default                                  : No
Forced                                   : No

Text
ID                                       : 4
Format                                   : UTF-8
Codec ID                                 : S_TEXT/UTF8
Codec ID/Info                            : UTF-8 Plain Text
Duration                                 : 1 h 26 min
Bit rate                                 : 66 b/s
Count of elements                        : 1549
Stream size                              : 42.1 KiB (0%)
Language                                 : English
Default                                  : No
Forced                                   : No

Menu
00:00:00.000                             : en:Scene 1
00:00:20.000                             : en:First Meet
00:05:19.000                             : en:A Special Gift
00:06:50.000                             : en:Halloween
00:11:46.000                             : en:Montage
00:12:39.000                             : en:Investor
00:15:14.000                             : en:Bowling
00:18:51.000                             : en:The Falcon Fury
00:26:11.000                             : en:Adventure Calling
00:27:22.000                             : en:Guilt
00:30:07.000                             : en:Dastardly Meltdown
00:31:57.000                             : en:DM Plans
00:33:52.000                             : en:Lineage
00:34:39.000                             : en:Romania
00:42:27.000                             : en:New Clothes
00:44:57.000                             : en:Forgotten Lunch
00:48:26.000                             : en:Ego
00:49:00.000                             : en:The Key
00:55:11.000                             : en:Choice
00:57:53.000                             : en:Prehistoric Help
01:00:03.000                             : en:Well Timed Fred
01:01:21.000                             : en:Arena Showdown
01:05:40.000                             : en:Heroic Speech
01:07:38.000                             : en:Bad Bargain
01:11:06.000                             : en:Reunited
01:13:18.000                             : en:Final Fight
01:19:33.000                             : en:Locked
01:25:33.000                             : en:Grand Opening
01:27:15.000                             : en:End Credits











Scoob! 2020 ViE 1080p AMZN WEB-DL DD2.0 H.264-NTG screenshots


Scoob! 2020 ViE 1080p AMZN WEB-DL DD2.0 H.264-NTG screenshots
Scoob! 2020 ViE 1080p AMZN WEB-DL DD2.0 H.264-NTG screenshots
Scoob! 2020 ViE 1080p AMZN WEB-DL DD2.0 H.264-NTG screenshots

TitleCuộc Phiêu Lưu Của Scooby-Doo
Year2020
GenreAnimation
Rating5.7 (10,798 votes)
PlotScooby-Doo is the hero of his own story in "SCOOB!," the first full-length, theatrical animated Scooby-Doo adventure, which reveals how he and his best friend Shaggy became two of the world's most beloved crime busters. The story takes us back to where it all began, when a young Scooby and Shaggy first meet, and team up with Velma, Daphne, and Fred to launch Mystery Incorporated. Written by Paul Giordano
DirectorTony Cervone
CastsWill Forte / Mark Wahlberg / Jason Isaacs / Gina Rodriguez / Zac Efron…
Runtime93 min
Cuộc Phiêu Lưu Của Scooby-Doo


No keyword! (Click to edit!)

Dragon Ball Super BOX4 mHD BluRay DD2.0 x264-TRiMThe Boxtrolls 2014 1080p BluRay DTS x264-SbRDragon Ball Kai E09 ViE 1080p BluRay FLAC 2.0 x264Resident Evil Collection (2008-2017) 1080p x265 10bit English 6CH TIGOLEPom Poko 1994 mHD BluRay DD2.0 x264-TRiMTeen Titans Go! To the Movies 2018 1080p WEB-DL DD5.1 H.264-EVO