NetHD.org

Shadow 2018 1080p WEB-DL AAC x264-Anonymous

Download Shadow 2018 1080p WEB-DL AAC x264-Anonymous 
Small DescriptionSet during China's Three Kingdom's era (AD 220-280). The story of a great king and his people, who will be expelled from their homeland and will aspire to claim it. The king, violent and ambitious, of mysterious methods and motives; his general, a visionary who yearns to win the final battle but needs to prepare his plans in secret; the women of the palace, who struggle to find redemption in a world where they have no place; and a commoner called "Lord of all the world", will be the characters…
Basic Info
Uploaded byAnonymous at 2018-12-01 20:21:53
Action
Social
  • 12
Hot Meter
  • Views: 1435
  • Hits: 194
  • Snatched: 147 x time(s)
  • Last Action: 2019-02-18 23:58:11
Peers15 Seeder | 0 Leecher


Shadow 2018 1080p WEB-DL AAC x264-Anonymous screenshots




Quote
General
Complete name                            : X:\pack\Shadow.2018.WEB-DL.1080p.H264.AAC-Anonymous.mp4
Format                                   : MPEG-4
Format profile                           : Base Media
Codec ID                                 : isom (isom/iso2/avc1/mp41/letv)
File size                                : 4.14 GiB
Duration                                 : 1 h 55 min
Overall bit rate                         : 5 125 kb/s
Writing application                      : Lavf56.15.102

Video
ID                                       : 1
Format                                   : AVC
Format/Info                              : Advanced Video Codec
Format profile                           : High@L4
Format settings                          : CABAC / 4 Ref Frames
Format settings, CABAC                   : Yes
Format settings, RefFrames               : 4 frames
Codec ID                                 : avc1
Codec ID/Info                            : Advanced Video Coding
Duration                                 : 1 h 55 min
Bit rate                                 : 4 985 kb/s
Width                                    : 1 920 pixels
Height                                   : 800 pixels
Display aspect ratio                     : 2.40:1
Frame rate mode                          : Constant
Frame rate                               : 25.000 FPS
Color space                              : YUV
Chroma subsampling                       : 4:2:0
Bit depth                                : 8 bits
Scan type                                : Progressive
Bits/(Pixel*Frame)                       : 0.130
Stream size                              : 4.03 GiB (97%)
Writing library                          : Provided by www.letv.com  :: H.264/MPEG-4 AVC codec -V 1.6.08

Audio
ID                                       : 2
Format                                   : AAC
Format/Info                              : Advanced Audio Codec
Format profile                           : LC
Codec ID                                 : mp4a-40-2
Duration                                 : 1 h 55 min
Duration_LastFrame                       : -13 ms
Bit rate mode                            : Constant
Bit rate                                 : 128 kb/s
Channel(s)                               : 2 channels
Channel positions                        : Front: L R
Sampling rate                            : 44.1 kHz
Frame rate                               : 43.066 FPS (1024 SPF)
Compression mode                         : Lossy
Stream size                              : 106 MiB (2%)
Default                                  : Yes
Alternate group                          : 1




Shadow 2018 1080p WEB-DL AAC x264-Anonymous screenshots Shadow 2018 1080p WEB-DL AAC x264-Anonymous screenshots Shadow 2018 1080p WEB-DL AAC x264-Anonymous screenshots

Shadow 2018 1080p WEB-DL AAC x264-Anonymous screenshots Shadow 2018 1080p WEB-DL AAC x264-Anonymous screenshots Shadow 2018 1080p WEB-DL AAC x264-Anonymous screenshots

TitleYing
Year2018
Genre
Rating7.1 (1,544 votes)
PlotSet during China's Three Kingdom's era (AD 220-280). The story of a great king and his people, who will be expelled from their homeland and will aspire to claim it. The king, violent and ambitious, of mysterious methods and motives; his general, a visionary who yearns to win the final battle but needs to prepare his plans in secret; the women of the palace, who struggle to find redemption in a world where they have no place; and a commoner called "Lord of all the world", will be the characters…
DirectorYimou Zhang
CastsChao Deng,Li Sun,Ryan Zheng,Qianyuan Wang,Jingchun Wang…
Runtime116 min
Genres
Ying


The Game Changer 2017 ViE 1080p BluRay DTS x264-HDSTransit 2012 ViE 720p BluRay DTS x264-VAVLegend of the Fist: The Return of Chen Zhen 2010 mHD BluRay DD5.1 x264-TRiMThe Marine 4: Moving Target 2015 mHD BluRay DD5.1 x264-TRiMBen-Hur 2016 1080p BluRay DTS x264-DONBlowtorch 2017 1080p WEB-DL DD5.1 H.264-FGT

Only members can create comment.