Snow White And The Seven Dwarfs 1937 1080p BluRay DTS x264-CiNEFiLE

Download Snow White And The Seven Dwarfs 1937 1080p BluRay DTS x264-CiNEFiLE 
Small DescriptionThe beautiful and kindhearted princess Snow White charms every creature in the kingdom except one - her jealous stepmother, the Queen. When the Magic Mirror proclaims Snow White the fairest one of all, she must flee into the forest, where she befriends the lovable seven dwarfs - Doc, Sneezy, Grumpy, Happy, Bashful, Sleepy, and Dopey. But when the Queen tricks Snow White with an enchanted apple, only the magic of true love's kiss can save her. Written by Lesley (from the back of the Snow White…
Basic Info
Uploaded byAnonymous at 2018-10-02 10:04:53
Action
Social
  • 3
Hot Meter
  • Views: 105
  • Hits: 18
  • Snatched: 10 x time(s)
  • Last Action: 2018-11-15 08:11:19
Peers1 Seeder | 0 Leecher
Snow White And The Seven Dwarfs 1937 1080p BluRay DTS x264-CiNEFiLE screenshots













Snow White And The Seven Dwarfs 1937 1080p BluRay DTS x264-CiNEFiLE screenshots


General
Unique ID                                : 174123500681872640416634159153961948766 (0x82FEF765E3F4F156A6E502A52176D65E)
Complete name                            : K:\Snow.White.And.The.Seven.Dwarfs.1937.1080p.BluRay.x264-CiNEFiLE.mkv
Format                                   : Matroska
Format version                           : Version 2
File size                                : 7.94 GiB
Duration                                 : 1 h 23 min
Overall bit rate                         : 13.7 Mb/s
Encoded date                             : UTC 2009-09-23 07:13:22
Writing application                      : mkvmerge v2.9.8 ('C'est le bon') built on Aug 13 2009 12:49:06
Writing library                          : libebml v0.7.7 + libmatroska v0.8.1

Video
ID                                       : 1
Format                                   : AVC
Format/Info                              : Advanced Video Codec
Format profile                           : High@L4.1
Format settings                          : CABAC / 4 Ref Frames
Format settings, CABAC                   : Yes
Format settings, RefFrames               : 4 frames
Codec ID                                 : V_MPEG4/ISO/AVC
Duration                                 : 1 h 23 min
Bit rate                                 : 12.2 Mb/s
Width                                    : 1 456 pixels
Height                                   : 1 080 pixels
Display aspect ratio                     : 4:3
Frame rate mode                          : Constant
Frame rate                               : 23.976 FPS
Color space                              : YUV
Chroma subsampling                       : 4:2:0
Bit depth                                : 8 bits
Scan type                                : Progressive
Bits/(Pixel*Frame)                       : 0.323
Stream size                              : 6.91 GiB (87%)
Writing library                          : x264 core 75 r1259 dd026f2
Encoding settings                        : cabac=1 / ref=4 / deblock=1:0:0 / analyse=0x3:0x133 / me=umh / subme=7 / psy=1 / psy_rd=1.0:0.0 / mixed_ref=1 / me_range=16 / chroma_me=1 / trellis=1 / 8x8dct=1 / cqm=0 / deadzone=21,11 / chroma_qp_offset=-2 / threads=6 / nr=0 / decimate=1 / mbaff=0 / bframes=3 / b_pyramid=0 / b_adapt=1 / b_bias=0 / direct=1 / wpredb=1 / keyint=250 / keyint_min=25 / scenecut=40 / rc_lookahead=40 / rc=2pass / mbtree=1 / bitrate=12161 / ratetol=1.0 / qcomp=0.60 / qpmin=10 / qpmax=51 / qpstep=4 / cplxblur=20.0 / qblur=0.5 / ip_ratio=1.40 / aq=1:1.00
Language                                 : English
Default                                  : No
Forced                                   : No

Audio
ID                                       : 2
Format                                   : DTS
Format/Info                              : Digital Theater Systems
Codec ID                                 : A_DTS
Duration                                 : 1 h 23 min
Bit rate mode                            : Constant
Bit rate                                 : 1 509 kb/s
Channel(s)                               : 6 channels
Channel positions                        : Front: L C R, Side: L R, LFE
Sampling rate                            : 48.0 kHz
Frame rate                               : 93.750 FPS (512 SPF)
Bit depth                                : 24 bits
Compression mode                         : Lossy
Stream size                              : 898 MiB (11%)
Language                                 : English
Default                                  : Yes
Forced                                   : No

Text
ID                                       : 3
Format                                   : UTF-8
Codec ID                                 : S_TEXT/UTF8
Codec ID/Info                            : UTF-8 Plain Text
Language                                 : English
Default                                  : No
Forced                                   : No













Snow White And The Seven Dwarfs 1937 1080p BluRay DTS x264-CiNEFiLE screenshots


Snow White And The Seven Dwarfs 1937 1080p BluRay DTS x264-CiNEFiLE screenshotsSnow White And The Seven Dwarfs 1937 1080p BluRay DTS x264-CiNEFiLE screenshotsSnow White And The Seven Dwarfs 1937 1080p BluRay DTS x264-CiNEFiLE screenshots
Snow White And The Seven Dwarfs 1937 1080p BluRay DTS x264-CiNEFiLE screenshotsSnow White And The Seven Dwarfs 1937 1080p BluRay DTS x264-CiNEFiLE screenshotsSnow White And The Seven Dwarfs 1937 1080p BluRay DTS x264-CiNEFiLE screenshots
Snow White And The Seven Dwarfs 1937 1080p BluRay DTS x264-CiNEFiLE screenshotsSnow White And The Seven Dwarfs 1937 1080p BluRay DTS x264-CiNEFiLE screenshotsSnow White And The Seven Dwarfs 1937 1080p BluRay DTS x264-CiNEFiLE screenshots

TitleSnow White and the Seven Dwarfs
Year1937
Genre
Rating7.6 (157,795 votes)
PlotThe beautiful and kindhearted princess Snow White charms every creature in the kingdom except one - her jealous stepmother, the Queen. When the Magic Mirror proclaims Snow White the fairest one of all, she must flee into the forest, where she befriends the lovable seven dwarfs - Doc, Sneezy, Grumpy, Happy, Bashful, Sleepy, and Dopey. But when the Queen tricks Snow White with an enchanted apple, only the magic of true love's kiss can save her. Written by Lesley (from the back of the Snow White…
DirectorWilliam Cottrell,David Hand,Wilfred Jackson
CastsRoy Atwell,Stuart Buchanan,Adriana Caselotti,Eddie Collins,Pinto Colvig…
Runtime83 min
Genres
Snow White and the Seven Dwarfs


Tags

Other releases

Same genre with Snow White And The Seven Dwarfs 1937 1080p BluRay DTS x264-CiNEFiLE

Batman: Mystery of the Batwoman 2003 720p BluRay DD5.1 x264-EucHDWinnie the Pooh 2011 1080p BluRay DTS x264-AMIABLE Resident Evil: Vendetta 2017 720p BluRay DD5.1 x264-SbRGrave Of The Fireflies 1988 ViE mHD Bluray DD2.0 x264-TRiMThe Snow Queen 3 2016 720p WEB-DL AAC2.0 H.264-EVOStudio Ghibli Collection 1979-2014 mHD BluRay DD x264-TRiM

Comment for Snow White And The Seven Dwarfs 1937 1080p BluRay DTS x264-CiNEFiLE

Only members can create comment.