South of Heaven, West of Hell 2000 1080p WEB-DL DD5.1 H.264–KORSAR

Download South of Heaven, West of Hell 2000 1080p WEB-DL DD5.1 H.264–KORSAR 
Small DescriptionValentine Casey is a U.S. Marshal in the desolate Tucson territory of the early 1900s. On Christmas Eve, his outlaw family pays him a disturbing visit. He must confront the sins of his past. He and his partner, U.S. Christmas, journey through the desert to a small town that the ruthless Henry Clan has hit in order to save Casey's love, Adelyne. Written by Sujit R. Varma
Basic Info
Uploaded byAnonymous at 2018-10-12 08:43:46
Action
Social
  • 1
Hot Meter
  • Views: 39
  • Hits: 8
  • Snatched: 0 x time(s)
  • Last Action: 2018-10-19 10:37:09
Peers1 Seeder | 2 Leecher
South of Heaven, West of Hell 2000 1080p WEB-DL DD5.1 H.264–KORSAR screenshots













South of Heaven, West of Hell 2000 1080p WEB-DL DD5.1 H.264–KORSAR screenshots


General
Unique ID                                : 239339788029370337206672088619358826935 (0xB40F2A9D71AE5B21B9B89CA8938F31B7)
Complete name                            : F:\MOVIE\К.югу.от.рая.к.западу.от.ада.2000.WEB-DL.1080p.mkv
Format                                   : Matroska
Format version                           : Version 2
File size                                : 9.53 GiB
Duration                                 : 2 h 11 min
Overall bit rate mode                    : Variable
Overall bit rate                         : 10.4 Mb/s
Encoded date                             : UTC 2018-10-10 03:10:35
Writing application                      : mkvmerge v5.8.0 ('No Sleep / Pillow') built on Sep  2 2012 15:37:04
Writing library                          : libebml v1.2.3 + libmatroska v1.3.0

Video
ID                                       : 1
Format                                   : AVC
Format/Info                              : Advanced Video Codec
Format profile                           : High@L4
Format settings                          : CABAC / 4 Ref Frames
Format settings, CABAC                   : Yes
Format settings, RefFrames               : 4 frames
Codec ID                                 : V_MPEG4/ISO/AVC
Duration                                 : 2 h 11 min
Bit rate mode                            : Variable
Bit rate                                 : 9 127 kb/s
Maximum bit rate                         : 15.0 Mb/s
Width                                    : 1 920 pixels
Height                                   : 816 pixels
Display aspect ratio                     : 2.35:1
Frame rate mode                          : Constant
Frame rate                               : 23.976 (24000/1001) FPS
Color space                              : YUV
Chroma subsampling                       : 4:2:0
Bit depth                                : 8 bits
Scan type                                : Progressive
Bits/(Pixel*Frame)                       : 0.243
Stream size                              : 8.40 GiB (88%)
Language                                 : English
Default                                  : Yes
Forced                                   : No
Color range                              : Limited
Color primaries                          : BT.709
Transfer characteristics                 : BT.709
Matrix coefficients                      : BT.709

Audio #1
ID                                       : 2
Format                                   : AC-3
Format/Info                              : Audio Coding 3
Codec ID                                 : A_AC3
Duration                                 : 2 h 11 min
Bit rate mode                            : Constant
Bit rate                                 : 384 kb/s
Channel(s)                               : 6 channels
Channel positions                        : Front: L C R, Side: L R, LFE
Sampling rate                            : 48.0 kHz
Frame rate                               : 31.250 FPS (1536 SPF)
Bit depth                                : 16 bits
Compression mode                         : Lossy
Stream size                              : 362 MiB (4%)
Title                                    : DVO | Екатеринбург Арт
Language                                 : Russian
Service kind                             : Complete Main
Default                                  : Yes
Forced                                   : No

Audio #2
ID                                       : 3
Format                                   : E-AC-3
Format/Info                              : Enhanced Audio Coding 3
Codec ID                                 : A_EAC3
Duration                                 : 2 h 11 min
Bit rate mode                            : Constant
Bit rate                                 : 640 kb/s
Channel(s)                               : 6 channels
Channel positions                        : Front: L C R, Side: L R, LFE
Sampling rate                            : 48.0 kHz
Frame rate                               : 187.500 FPS (256 SPF)
Compression mode                         : Lossy
Stream size                              : 603 MiB (6%)
Title                                    : Original
Language                                 : English
Service kind                             : Complete Main
Default                                  : No
Forced                                   : No

Text #1
ID                                       : 4
Format                                   : UTF-8
Codec ID                                 : S_TEXT/UTF8
Codec ID/Info                            : UTF-8 Plain Text
Language                                 : Russian
Default                                  : No
Forced                                   : No

Text #2
ID                                       : 5
Format                                   : UTF-8
Codec ID                                 : S_TEXT/UTF8
Codec ID/Info                            : UTF-8 Plain Text
Language                                 : English
Default                                  : No
Forced                                   : No

Menu
00:00:00.000                             : ru:01. Вступительные Титры
00:05:01.934                             : ru:02. Подарки На Рождество
00:10:15.765                             : ru:03. Прибытие
00:12:47.316                             : ru:04. Долгий Срок
00:15:34.216                             : ru:05. Доставка
00:19:20.609                             : ru:06. Ограбление
00:23:46.041                             : ru:07. Военный Департамент
00:29:08.863                             : ru:08. Заключённый
00:32:55.606                             : ru:09. Побег
00:38:30.074                             : ru:10. Связь
00:42:17.217                             : ru:11. Смит
00:46:25.165                             : ru:12. Представление
00:51:08.131                             : ru:13. Призраки
00:55:35.048                             : ru:14. Запахи
00:58:22.882                             : ru:15. Понимание
01:03:39.298                             : ru:16. Воспоминания
01:06:37.143                             : ru:17. Температура
01:13:22.881                             : ru:18. Огонь
01:16:06.411                             : ru:19. Бизнес
01:24:22.453                             : ru:20. Перемена Планов
01:28:14.605                             : ru:21. Правосудие
01:32:47.328                             : ru:22. Заместитель
01:36:57.698                             : ru:23. Гостеприимство
01:44:38.855                             : ru:24. Дух
01:48:58.348                             : ru:25. Бремя
01:54:30.446                             : ru:26. Похороны
01:58:59.355                             : ru:27. Взрывчатка
02:02:57.186                             : ru:28. Бытие
02:05:32.608                             : ru:29. Среди Живых
02:08:31.286                             : ru:30. Финальные Титры













South of Heaven, West of Hell 2000 1080p WEB-DL DD5.1 H.264–KORSAR screenshots


South of Heaven, West of Hell 2000 1080p WEB-DL DD5.1 H.264–KORSAR screenshotsSouth of Heaven, West of Hell 2000 1080p WEB-DL DD5.1 H.264–KORSAR screenshotsSouth of Heaven, West of Hell 2000 1080p WEB-DL DD5.1 H.264–KORSAR screenshots
South of Heaven, West of Hell 2000 1080p WEB-DL DD5.1 H.264–KORSAR screenshotsSouth of Heaven, West of Hell 2000 1080p WEB-DL DD5.1 H.264–KORSAR screenshotsSouth of Heaven, West of Hell 2000 1080p WEB-DL DD5.1 H.264–KORSAR screenshots

TitleSouth of Heaven, West of Hell
Year2000
Genre
Rating4.2 (1,291 votes)
PlotValentine Casey is a U.S. Marshal in the desolate Tucson territory of the early 1900s. On Christmas Eve, his outlaw family pays him a disturbing visit. He must confront the sins of his past. He and his partner, U.S. Christmas, journey through the desert to a small town that the ruthless Henry Clan has hit in order to save Casey's love, Adelyne. Written by Sujit R. Varma
DirectorDwight Yoakam
CastsDwight Yoakam,Vince Vaughn,Billy Bob Thornton,Bridget Fonda,Peter Fonda…
Runtime131 min
Genres
South of Heaven, West of Hell


Tags

Other releases

Same genre with South of Heaven, West of Hell 2000 1080p WEB-DL DD5.1 H.264–KORSAR

A Cure for Wellness 2016 1080p Blu-ray AVC DTS-HD MA 5.1-CHDBitsThe Big Picture 2010 720p Blu-ray DD5.1 x264 -DDLimite 1931 Criterion Collection mHD BluRay DD2.0 x264-BMDruGirl's Pleasure: Man Hunting 1977 NTSC DVD5 - Custom subsLittle Forest: Summer/Autumn 2015 mHD BluRay DD5.1 x264-TRiMZ For Zachariah 2015 720p BluRay DTS x264-iNFAMOUS

Comment for South of Heaven, West of Hell 2000 1080p WEB-DL DD5.1 H.264–KORSAR

Only members can create comment.