Stairway to Heaven 2003 480p HDTV MP3-2.0 XviD (Bonus OST)

Download Stairway to Heaven 2003 480p HDTV MP3-2.0 XviD (Bonus OST) Free
Small Description[K-Zone] Nấc Thang lên Thiên Đường | English Sub | Bonus OST.
Basic Info
Uploaded byNgoAnhQuanDisabled (Power User) at 2017-02-02 12:09:06
Action
Social
  • 3
Hot Meter
  • Views: 272
  • Hits: 22
  • Snatched: 9 x time(s)
  • Last Action: 2018-02-13 10:47:17
Peers0 Seeder | 0 Leecher
Stairway to Heaven 2003 480p HDTV MP3-2.0 XviD (Bonus OST) screenshots 


Type: TV-Show

Filename: Stairway To Heaven (2003) - Raw HDTV XviD (Complete) + OST

File Size: 13.77 GB

Rip Type: HDTV

Video Quality: SD

TV Show: Complete Series

Audio:  Korean

 

Cast

Kwon Sang Woo as Cha Song-ju
Choi Ji Woo as Han Jung-suh
Kim Tae Hee as Han Yu-ri
Shin Hyun Joon as Han Tae-hwa 

Extended Cast

Lee Hwi Hyang as Tae Mira (Tae-hwa & Yuri's mother)
Ha Jae Young as Han Su-ha (Jung-suh's father)
Kim Ji Sook as Chairman Min Suh-hyun (Song-ju's mother)
Jung Han Yong as Han Pil-su (Tae-hwa & Yuri's father)
Baek Sung Hyun as young Cha Song-ju
Park Shin Hye as young Han Jung-suh/Kim Ji-su
Lee Wan as young Han Tae-hwa/Han Chul-su
Park Ji Mi as young Han Yuri
Park Young Ji

Director: Lee Jang Soo
Writer: Park Hye Kyung 

Also known as: Stairway to Heaven / Stairs To Heaven / Steps in Paradise
Genre: Romance, Drama
Episodes: 20 
Country: South Korea
Language: Korean
Subtitles: Arabic and English (soft subs)

Plot: (spoiler alert)

Jung-suh and Song-joo grew up together. They were always there for each other. Tragedy begins when Song Joo begins his studies overseas without Jung-suh. Jung-suh's father remarries Tae Mira. Mira takes in her two children from a previous marriage, Tae-hwa and Yuri. Yuri is envious of the life that Jung-suh leads and is determined to take everything away from her, including Song-joo. Tae-hwa begins to develop feelings for his stepsister, however Jung-suh still loves Song-joo. Five years later, tragedy occurs when Jung-suh gets into a car accident causing her to lose her memory. Together with Tae-hwa, they start anew. Song-joo is led to believe that she is dead. However, when they meet again one day, he is determined to remind her of the love they had for one another. When fate finally seemed to be on their side, Jung-suh is diagnosed with eye cancer.

Format : AVI
Format/Info : Audio Video Interleave
File size : 707 MiB
Duration : 1h 1mn
Overall bit rate : 1 617 Kbps
Writing application : VirtualDubMod 1.5.10.2 (build 2542/release)
Writing library : VirtualDub build 32817/release

Video
ID : 0
Format : MPEG-4 Visual
Format profile : Simple@L3
Format settings, BVOP : 2
Format settings, QPel : No
Format settings, GMC : No warppoints
Format settings, Matrix : Default (H.263)
Codec ID : XVID
Codec ID/Hint : XviD
Duration : 1h 1mn
Bit rate : 1 411 Kbps
Width : 600 pixels
Height : 450 pixels
Display aspect ratio : 4:3
Frame rate : 29.970 fps
Color space : YUV
Chroma subsampling : 4:2:0
Bit depth : 8 bits
Scan type : Progressive
Compression mode : Lossy
Bits/(Pixel*Frame) : 0.174
Stream size : 617 MiB (87%)
Writing library : XviD 0.0.09 (UTC 2003-03-25)

Audio
ID : 1
Format : MPEG Audio
Format version : Version 1
Format profile : Layer 3
Codec ID : 55
Codec ID/Hint : MP3
Duration : 1h 1mn
Bit rate mode : Constant
Bit rate : 192 Kbps
Channel(s) : 2 channels
Sampling rate : 48.0 KHz
Compression mode : Lossy
Stream size : 83.9 MiB (12%)
Alignment : Aligned on interleaves
Interleave, duration : 24 ms (0.72 video frame)
Interleave, preload duration : 504 ms

Soundtrack

01 - Chopin, Piano Concerto No. 1 Op.11 E Minor 2nd Mvt : Romanza
02 - Cheongugui Gi-eok (KO: 천국의 기억, EN: Memory of the Heaven) - Jang Jung Woo
03 - Lette - Kang Woo Jin
04 - Ave Maria - Rebecca Luker
05 - Geugeotmaneun (KO: 그것만은, EN: Nothing But That) - Jang Jung Woo
06 - Eonjekkajina (KO: 언제까지나, EN: Forever)
07 - Na Man Eh Nuh (KO: 나만의 )- Kim Hyun Ah
08 - Remember
09 - Seulpeun Sarang (KO: 슬픈 사랑, EN: Sad Love)
10 - Areumda-un Neo-ege (KO: 아름다운 너에게, EN: To You the Beautiful) - Moon Ji Hwan
11 - Neoreul Jikilkke (KO: 너를 지킬께, EN: I Will Protect You)
12 - Bogoshipda (KO: 보고싶다, EN: I Miss You) - Kim Bum Soo
13 - Kkeuchi Animeul (KO: 끝이 아님을, EN: That It Is Not the End)
14 - Cheongugui Gi-eok (KO: 천국의 기억, EN: Memory of the Heaven) - Park Mook Hwan
15 - Sesang Kkeute Seo Isseodo (KO: 세상 끝에 있어도, EN: Though I Am At the End of the World)
16 - Yaksok (KO: 약속, EN: Promise)
17 - Geugeotmaneun (KO: 그것만은, EN: Nothing But That) - Park Mook Hwan
18 - Stairway to Heaven (taken from Led Zeppelin)

Stairway to Heaven 2003 480p HDTV MP3-2.0 XviD (Bonus OST) screenshots Stairway to Heaven 2003 480p HDTV MP3-2.0 XviD (Bonus OST) screenshots Stairway to Heaven 2003 480p HDTV MP3-2.0 XviD (Bonus OST) screenshots Stairway to Heaven 2003 480p HDTV MP3-2.0 XviD (Bonus OST) screenshots Stairway to Heaven 2003 480p HDTV MP3-2.0 XviD (Bonus OST) screenshots Stairway to Heaven 2003 480p HDTV MP3-2.0 XviD (Bonus OST) screenshots Stairway to Heaven 2003 480p HDTV MP3-2.0 XviD (Bonus OST) screenshots Stairway to Heaven 2003 480p HDTV MP3-2.0 XviD (Bonus OST) screenshots Stairway to Heaven 2003 480p HDTV MP3-2.0 XviD (Bonus OST) screenshots Stairway to Heaven 2003 480p HDTV MP3-2.0 XviD (Bonus OST) screenshots Stairway to Heaven 2003 480p HDTV MP3-2.0 XviD (Bonus OST) screenshots Stairway to Heaven 2003 480p HDTV MP3-2.0 XviD (Bonus OST) screenshots Stairway to Heaven 2003 480p HDTV MP3-2.0 XviD (Bonus OST) screenshots Stairway to Heaven 2003 480p HDTV MP3-2.0 XviD (Bonus OST) screenshots Stairway to Heaven 2003 480p HDTV MP3-2.0 XviD (Bonus OST) screenshots Stairway to Heaven 2003 480p HDTV MP3-2.0 XviD (Bonus OST) screenshots Stairway to Heaven 2003 480p HDTV MP3-2.0 XviD (Bonus OST) screenshots Stairway to Heaven 2003 480p HDTV MP3-2.0 XviD (Bonus OST) screenshots Stairway to Heaven 2003 480p HDTV MP3-2.0 XviD (Bonus OST) screenshots Stairway to Heaven 2003 480p HDTV MP3-2.0 XviD (Bonus OST) screenshots
TitleCheongookeui gyedan
Year2003
GenreRomance
Rating7.9 (384 votes)
PlotYuri make Jeong-Seo being crashed and lose memory, even forced Jeong-Seo to engage with Tae-Hwa for 5 years. Jeong-Seo finally found herself and find her love (Song-Joo) but got the most fatal eye cancer like her own mother. Tae-Hwa claim going France, but actually suicide to donate his corneas to compensate what Yuri owe Jeong-Seo. Yuri gets into jail, TanMira got into mental hospital. Jeong-Seo stayed her life with her Song-Joo but die of eye cancer. 5 year later, Song-Joo told Jeong-Seo to…
Directorn/A
CastsHa Jae-Young / Sang-Woo Kwon / Ji-Woo Choi / Hyeon-jun Shin / Tae-hee Kim…
Runtimen/A
GenresRomance
Cheongookeui gyedan


Tags

Other releases

Same genre with Stairway to Heaven 2003 480p HDTV MP3-2.0 XviD (Bonus OST)

Chennai Express 2013 1080p BluRay DD5.1 x264-TayTOSnowpiercer 2013 1080p FRE BluRay Remux AVC DTS-HD MA 5.1-HDArea7 Assassins 2013 720p BluRay DD5.1 x264-VietHDLethal Weapon 4 1998 720p Blu-ray x264-CtrlHDAllegiant 2016 1080p ViE Blu-ray AVC TrueHD Atmos 7.1-NetBDGodzilla 2014 720p BluRay DD5.1 x264-VietHD

Comment for Stairway to Heaven 2003 480p HDTV MP3-2.0 XviD (Bonus OST)

Only members can create comment.