Steel Rain 2017 ViE 1080p WEB-DL DD5.1 x264-STRiFE

Download Steel Rain 2017 ViE 1080p WEB-DL DD5.1 x264-STRiFE 
Small DescriptionAu Vie | Cơn Mưa Thép 2017
Basic Info
Uploaded byAnonymous at 2018-04-12 15:51:42
Action
Social
  • 15
Hot Meter
  • Views: 1082
  • Hits: 168
  • Snatched: 132 x time(s)
  • Last Action: 2018-12-18 14:40:31
Peers2 Seeder | 0 Leecher
Steel Rain 2017 ViE 1080p WEB-DL DD5.1 x264-STRiFE screenshots Steel Rain 2017 ViE 1080p WEB-DL DD5.1 x264-STRiFE screenshots Steel Rain 2017 ViE 1080p WEB-DL DD5.1 x264-STRiFE screenshots Steel Rain 2017 ViE 1080p WEB-DL DD5.1 x264-STRiFE screenshots Steel Rain 2017 ViE 1080p WEB-DL DD5.1 x264-STRiFE screenshots Steel Rain 2017 ViE 1080p WEB-DL DD5.1 x264-STRiFE screenshots Steel Rain 2017 ViE 1080p WEB-DL DD5.1 x264-STRiFE screenshots Steel Rain 2017 ViE 1080p WEB-DL DD5.1 x264-STRiFE screenshots Steel Rain 2017 ViE 1080p WEB-DL DD5.1 x264-STRiFE screenshots Steel Rain 2017 ViE 1080p WEB-DL DD5.1 x264-STRiFE screenshots Steel Rain 2017 ViE 1080p WEB-DL DD5.1 x264-STRiFE screenshots Steel Rain 2017 ViE 1080p WEB-DL DD5.1 x264-STRiFE screenshots Steel Rain 2017 ViE 1080p WEB-DL DD5.1 x264-STRiFE screenshots Steel Rain 2017 ViE 1080p WEB-DL DD5.1 x264-STRiFE screenshots Steel Rain 2017 ViE 1080p WEB-DL DD5.1 x264-STRiFE screenshots Steel Rain 2017 ViE 1080p WEB-DL DD5.1 x264-STRiFE screenshots Steel Rain 2017 ViE 1080p WEB-DL DD5.1 x264-STRiFE screenshots Steel Rain 2017 ViE 1080p WEB-DL DD5.1 x264-STRiFE screenshots


Quote
Format : Matroska
Format version : Version 4 / Version 2
File size : 4.67 GiB
Duration : 2 h 19 min
Overall bit rate mode : Variable
Overall bit rate : 4 779 kb/s
Encoded date : UTC 2018-04-11 14:46:35
Writing application : mkvmerge v22.0.0 ('At The End Of The World') 64-bit
Writing library : libebml v1.3.5 + libmatroska v1.4.8
Cover : Yes
Attachments : Cover.jpg

Video
ID : 1
Format : AVC
Format/Info : Advanced Video Codec
Format profile : Main@L4
Format settings, CABAC : Yes
Format settings, ReFrames : 3 frames
Codec ID : V_MPEG4/ISO/AVC
Duration : 2 h 19 min
Bit rate mode : Variable
Bit rate : 4 020 kb/s
Maximum bit rate : 6 030 kb/s
Width : 1 920 pixels
Height : 1 080 pixels
Display aspect ratio : 16:9
Frame rate mode : Constant
Frame rate : 24.000 FPS
Color space : YUV
Chroma subsampling : 4:2:0
Bit depth : 8 bits
Scan type : Progressive
Bits/(Pixel*Frame) : 0.081
Stream size : 3.92 GiB (84%)
Title : Steel Rain (2017) | Gangcheolbi
Writing library : x264 core 148 r2714 2daf636
Encoding settings : cabac=1 / ref=3 / deblock=1:0:0 / analyse=0x1:0x111 / me=umh / subme=10 / psy=1 / psy_rd=1.00:0.00 / mixed_ref=1 / me_range=24 / chroma_me=1 / trellis=2 / 8x8dct=0 / cqm=0 / deadzone=21,11 / fast_pskip=1 / chroma_qp_offset=-2 / threads=8 / lookahead_threads=1 / sliced_threads=0 / nr=0 / decimate=1 / interlaced=0 / bluray_compat=0 / stitchable=1 / constrained_intra=0 / bframes=2 / b_pyramid=0 / b_adapt=2 / b_bias=0 / direct=3 / weightb=1 / open_gop=0 / weightp=2 / keyint=48 / keyint_min=25 / scenecut=0 / intra_refresh=0 / rc_lookahead=48 / rc=2pass / mbtree=1 / bitrate=4020 / ratetol=1.0 / qcomp=0.50 / qpmin=6 / qpmax=51 / qpstep=4 / cplxblur=20.0 / qblur=0.5 / vbv_maxrate=6030 / vbv_bufsize=8040 / nal_hrd=vbr / filler=0 / ip_ratio=1.40 / aq=1:1.00
Language : Korean
Default : Yes
Forced : No

Audio #1
ID : 2
Format : AC-3
Format/Info : Audio Coding 3
Mode extension : CM (complete main)
Format settings, Endianness : Big
Codec ID : A_AC3
Duration : 2 h 19 min
Bit rate mode : Constant
Bit rate : 384 kb/s
Channel(s) : 6 channels
Channel positions : Front: L C R, Side: L R, LFE
Sampling rate : 48.0 kHz
Frame rate : 31.250 FPS (1536 spf)
Bit depth : 16 bits
Compression mode : Lossy
Stream size : 384 MiB (8%)
Language : Vietnamese
Default : Yes
Forced : No

Audio #2
ID : 3
Format : AC-3
Format/Info : Audio Coding 3
Mode extension : CM (complete main)
Format settings, Endianness : Big
Codec ID : A_AC3
Duration : 2 h 19 min
Bit rate mode : Constant
Bit rate : 384 kb/s
Channel(s) : 6 channels
Channel positions : Front: L C R, Side: L R, LFE
Sampling rate : 48.0 kHz
Frame rate : 31.250 FPS (1536 spf)
Bit depth : 16 bits
Compression mode : Lossy
Stream size : 384 MiB (8%)
Language : Korean
Default : No
Forced : No

Text #1
ID : 4
Format : UTF-8
Codec ID : S_TEXT/UTF8
Codec ID/Info : UTF-8 Plain Text
Duration : 2 h 16 min
Bit rate : 53 b/s
Count of elements : 1511
Stream size : 53.3 KiB (0%)
Language : English
Default : No
Forced : No

Text #2
ID : 5
Format : UTF-8
Codec ID : S_TEXT/UTF8
Codec ID/Info : UTF-8 Plain Text
Duration : 2 h 16 min
Bit rate : 56 b/s
Count of elements : 1642
Stream size : 56.0 KiB (0%)
Title : Brazilian
Language : Portuguese
Default : No
Forced : No

Text #3
ID : 6
Format : UTF-8
Codec ID : S_TEXT/UTF8
Codec ID/Info : UTF-8 Plain Text
Duration : 2 h 16 min
Bit rate : 54 b/s
Count of elements : 1643
Stream size : 54.7 KiB (0%)
Language : Dutch
Default : No
Forced : No

Text #4
ID : 7
Format : UTF-8
Codec ID : S_TEXT/UTF8
Codec ID/Info : UTF-8 Plain Text
Duration : 2 h 16 min
Bit rate : 59 b/s
Count of elements : 1647
Stream size : 59.4 KiB (0%)
Language : French
Default : No
Forced : No

Text #5
ID : 8
Format : UTF-8
Codec ID : S_TEXT/UTF8
Codec ID/Info : UTF-8 Plain Text
Duration : 2 h 16 min
Bit rate : 56 b/s
Count of elements : 1642
Stream size : 56.6 KiB (0%)
Language : German
Default : No
Forced : No

TitleGangcheolbi
Year2017
GenreAction
Rating7.1 (2,156 votes)
Plotn/A
DirectorWoo-seok Yang
CastsWoo-sung Jung,Do-won Kwak,Eui-sung Kim,Kyeong-yeong Lee,Kap-su Kim…
Runtime139 min
GenresAction
Gangcheolbi


Tags

Other releases

Same genre with Steel Rain 2017 ViE 1080p WEB-DL DD5.1 x264-STRiFE

Revenge of the Ninja 1983 1080p BluRay FLAC 2.0 x264-VietHDVengeance 2009 720p BluRay x264-EbP Wanted 2008 1080p BluRay DTS x264-NiPStar Wars Episode VII - The Force Awakens 2015 1080p ViE Blu-ray AVC DTS-HD MA 7.1-NetBDLive Free or Die Hard 2007 720p DTS x264-ESiR Allegiant 2016 ViE mHD BluRay DD5.1 x264-TRiM

Comment for Steel Rain 2017 ViE 1080p WEB-DL DD5.1 x264-STRiFE

Only members can create comment.